>

7.4

iTunes

7.4

2 сезон

9.4

1 сезон

1

7.4

2 сезон

7.2

iTunes

6.0

MVO

13

6.1

iTunes

8.3

Пиратка

30

ULTIMATE

pack

9.9

Лицензия

ВАЖНО

ИГРА 18+

pack

7.3

RePack

MK11

7.7

RePack

jed

7.8

RePack

fifa19

8.5

RePack

RDR2

RePack

NEED FOR SPEED™ PAYBACK

1 сезон

9 сезон

Бесстыжие 9 сезон

Все сериалы

все сериалы на PB.wtf

RePack

FAR CRY 5

Anonymous, доброе утро, мы катастрофически не успеваем собрать деньги на оплату серверов, помогите нам пожалуйста 5,10,15р., для нас важна любая помощь . В качестве благодарности мы отключим Вам всю рекламу на сайте (укажите свой ник в строку Ваше имя)!

×
  
Magnet ссылка

Агенты А.Н.К.Л. / The Man from U.N.C.L.E. (Гай Ричи) [2015 г., боевик, комедия, приключения, HDRip, Авторский одноголосый "Д.Есарев"] pb.wtf

Агенты А.Н.К.Л. через торрент pb.wtf

Размер: 2.15 GB | Добавлен: 6 лет назад | Торрент скачан:46 раз
Смотреть онлайн Агенты А.Н.К.Л. | Скачать    Ребята, помогите собрать деньги на оплату серверов!!!

24-12-2015 17:51 Агенты А.Н.К.Л. Скачать торрент  

Агенты А.Н.К.Л. / The Man from U.N.C.L.E.
Год выпуска: 2015
Страна: США, Великобритания / Warner Bros., RatPac-Dune Entertainment, Wigram Productions
Жанр: боевик, комедия, приключения
Продолжительность: 01:56:29
Перевод: Авторский одноголосый (Д.Есарев)

Режиссер: Гай Ричи

IMDB 7.40 (107 553)


В ролях: Генри Кавилл, Арми Хаммер, Алисия Викандер, Элизабет Дебики, Хью Грант, Лука Кальвани, Сильвестр Грот, Джаред Харрис, Кристиан Беркель

Описание: Наполеон Соло — агент ЦРУ, на счету которого огромное количество успешно проведенных операций. Он считается одним из лучших секретных агентов во всем мире, и с ним может сравниться только один человек — самый молодой и перспективный агент КГБ, Илья Курякин. Их противостояние переросло в настоящую войну, в которой никто не собирается уступать. Однако обстоятельства складываются так, что непримиримые враги вынуждены стать напарниками. Это происходит после того как спецслужбы двух стран обнаруживают международную преступную организацию, которой удалось создать ядерную бомбу...

Качество: HDRip
Формат: AVI
Видео кодек: XviD
Аудио кодек: AC3
Видео: 720x304 (2.37:1), 23.976 fps, XviD build 50 ~2190 kbps avg, 0.42 bit/pixel
Аудио: 48 kHz, AC3 Dolby Digital, 3/2 (L,C,R,l,r) + LFE ch, ~448 kbps


Общее
Полное имя : F:\кино\Агенты А.Н.К.Л..2015.A.HDRip.avi
Формат : AVI
Формат/Информация : Audio Video Interleave
Профиль формата : OpenDML
Размер файла : 2,15 Гбайт
Продолжительность : 1 ч. 56 м.
Общий поток : 2645 Кбит/сек
Программа кодирования : VirtualDubMod 1.5.10.3 | www.virtualdub-fr.org || (build 2550/release)
Библиотека кодирования : VirtualDubMod build 2550/release

Видео
Идентификатор : 0
Формат : MPEG-4 Visual
Профиль формата : Advanced Simple@L5
Параметр BVOP формата : 2
Параметр QPel формата : Нет
Параметр GMC формата : Без точки перехода
Параметр матрицы формата : Default (H.263)
Идентификатор кодека : XVID
Идентификатор кодека/Подсказка : XviD
Продолжительность : 1 ч. 56 м.
Битрейт : 2185 Кбит/сек
Ширина : 720 пикселей
Высота : 304 пикселя
Соотношение сторон : 2,35:1
Частота кадров : 23,976 (23976/1000) кадра/сек
Цветовое пространство : YUV
Субдискретизация насыщенности : 4:2:0
Битовая глубина : 8 бит
Тип развёртки : Прогрессивная
Метод сжатия : С потерями
Бит/(Пиксели*Кадры) : 0.416
Размер потока : 1,78 Гбайт (83%)
Библиотека кодирования : XviD 1.2.1 (UTC 2008-12-04)

Аудио
Идентификатор : 1
Формат : AC-3
Формат/Информация : Audio Coding 3
Расширение режима : CM (complete main)
Параметр Endianness формата : Big
Идентификатор кодека : 2000
Продолжительность : 1 ч. 56 м.
Вид битрейта : Постоянный
Битрейт : 448 Кбит/сек
Каналы : 6 каналов
Расположение каналов : Front: L C R, Side: L R, LFE
Частота : 48,0 КГц
Частота кадров : 31,250 кадров/сек (1536 spf)
Метод сжатия : С потерями
Размер потока : 373 Мбайт (17%)
Выравнивание : Разделение по промежуткам
Продолжительность промежутка : 42 мс. (1,00 видеокадр)
Время предзагрузки промежутка : 500 мс.

pb.wtf



Скачать Агенты А.Н.К.Л. через торрент https://pic.kartinco.top/images/11/ebemw.jpg Скачать, смотреть онлайн Агенты А.Н.К.Л. бесплантно в хорошем качестве Описание: Наполеон Соло — агент ЦРУ, на счету которого огромное количество успешно проведенных операций. Он считается одним из лучших ... 7 10 3
Торрент: Зарегистрирован [2015-12-24 17:51] · скачан: 46 раз
Статус: √ проверено
Размер: 2.15 GB
Как cкачать? Как скачать Агенты А.Н.К.Л. через торрент | UTorrent

% Раздел Тема Автор DL S | L
Ultra HD (UHD: 2K, 4K, 8K) — видео сверхвысокой чёткости [ 21.28 GB ] Агенты А.Н.К.Л. / The Man from U.N.C.L.E. [2015 UHD WEBRip 2160p] [HDR] 4xAVO+DUB [] bober100 Скачать
1 | 0
Фильмы [HD 720p, 1080p] (Хороший звук DUB, MVO) [ 6.96 GB ] Агенты А.Н.К.Л. / The Man from U.N.C.L.E. [2015 BDRip 1080p HEVC ] 2xAVO+DUB [] bober100 Скачать
1 | 0
Фильмы с авторской озвучкой [ 1.45 GB ] Агенты А.Н.К.Л. / The Man from U.N.C.L.E. [2015 BDRip] [AVO] killermax2013 Скачать
1 | 0
Фильмы (WEB-DL 720p, 1080p) [ 4.25 GB ] Агенты А.Н.К.Л. / The Man from U.N.C.L.E. [2015 WEB-DL 1080p / ] Ворон Скачать
1 | 0
Фильмы (DVD фильмы) [ 5.57 GB ] Агенты А.Н.К.Л. / The Man from U.N.C.L.E. [2015 DVD9] R5 voovaz Скачать
1 | 0
Фильмы (DVD фильмы) [ 6.88 GB ] Агенты А.Н.К.Л. / The Man from U.N.C.L.E. [2015 DVD9 / Custom] DUB] Ворон Скачать
1 | 0
R.G. Resident & PiratVoice - Фильмы, Видео [ 2.17 GB ] Агенты А.Н.К.Л. / The Man from U.N.C.L.E. [2015 WEB-DLRip-AVC ] schultz Скачать
1 | 0

28-11-2019 20:33  

Отключить всю рекламу на сайте

    Дорогой пользователь! Огромная просьба, поблагодарите релизера, оцените раздачу и оставьте свои комментарий, если Вы скачали Агенты А.Н.К.Л. через торрент бесплатно!
    Комментировать посты могут только пользователи прошедшие не сложную регистрацию
    Показать сообщения:    

    Агенты А.Н.К.Л. через торрент
    Скачать бесплатно Агенты А.Н.К.Л.
    Агенты А.Н.К.Л. скачать торрент
    Агенты А.Н.К.Л. смотреть онлайн
    Cкачать фильм Агенты А.Н.К.Л. бесплатно
    Агенты А.Н.К.Л. скачать торрент в хорошем качестве
    Агенты А.Н.К.Л. смотреть онлайн бесплатно в хорошем качестве


    Вы не можете начинать темы
    Вы не можете отвечать на сообщения
    Вы не можете редактировать свои сообщения
    Вы не можете удалять свои сообщения
    Вы не можете голосовать в опросах
    Вы не можете прикреплять файлы к сообщениям
    Вы можете скачивать файлы