Ссылка на приватное зеркало нашего сайта всего за 1$. Внимание количество ограничено!!!

2 сезон

iTunes

1 сезон

1

iTunes

iTunes

iTunes

1 сезон

RePack

30

ИГРА 18+

pack

ВАЖНО

!!Акция!!

Alien_RageХит недели

RePack

MK11
pack

Забери бонус

RePack

jed

!!Акция!!

Alien_Rage

RePack

fifa19

RePack

Assassins Creed: Odyssey

RePack

NEED FOR SPEED™ PAYBACK

4 сезон

9 сезон

Бесстыжие 9 сезон

Все сериалы

все сериалы на PB.wtf

RePack

FAR CRY 5
  

Мой друг Дед Мороз / Le père Noël (Александр Коффре) [2014, комедия, BDRip 1080p, Профессиональный многоголосый [Лицензия / iTunes] pb.wtf

Мой друг Дед Мороз через торрент pb.wtf

Размер: 5.66 GB | Добавлен: 4 года 9 мес. назад | Торрент скачан:75 раз
Скачать  

24-12-2015 21:58 Мой друг Дед Мороз Скачать торрент  

Мой друг Дед Мороз / Le père Noël
Год выпуска: 2015
Страна: Франция, Бельгия
Жанр: комедия
Продолжительность: 01:48:40
Перевод: Профессиональный многоголосый [Лицензия / iTunes]
Субтитры: русские,
Режиссер: Александр Коффре
В ролях:

Тахар Рахим (Le Père Noël), Виктор Кабаль (Victor), Аннелиз Эм (La mère), Микаэль Абитбуль (Le Père Fouettard), Филипп Реббо (Camille), Амели Гленн (Marie), Жан Франсуа Кэйри (Policier métro), Джибрил Гуйе (Policier métro), Naoufel Aliju (Sbire Père Noël), Сатья Дюсаги (Sbire Père Noël), Шарли Дюпон (Homme cambriolé), Lou Ballon (Enfant homme cambriolé)
Описание:
В ночь на Рождество 6-летний Антуан загадал только одно желание - покататься в санях Санта-Клауса между звёзд, рассыпанных по небу. И тут, словно по мановению волшебной палочки, на балконе появляется Санта. Антуан был слишком удивлён, чтобы признать в нём бородатого грабителя, переодетого в новогодний костюм, который отправился по парижским квартирам в поисках богатств.
Мировая премьера: 4 декабря 2014

Качество: BDRip 1080p
Формат: MKV
Видео: AVC, 1920x800 (2.40:1), 5413 kbps, 25 fps, 0,141 bpp
Аудио №1: русский / AC3 / 5.1 / 48 kHz / 384 kbps / 16 bit ||
Аудио №2: французский / DTS / 5.1 / 48 kHz / 1510 kbps / 24 bit

Код:

Общее
Уникальный идентификатор                 : 215859015597105797237418058456777770555 (0xA264EF271AD3873D92EE8083744A463B)
Полное имя                               : D:\download\M0y.DruG.DeD.m0r0z.2014.P.BDRip.1080p.mkv
Формат                                   : Matroska
Версия формата                           : Version 4 / Version 2
Размер файла                             : 5,66 Гбайт
Продолжительность                        : 1 ч. 48 м.
Общий поток                              : 7456 Кбит/сек
Дата кодирования                         : UTC 2015-12-24 10:46:45
Программа кодирования                    : mkvmerge v8.6.1 ('Flying') 64bit
Библиотека кодирования                   : libebml v1.3.3 + libmatroska v1.4.4
DURATION                                 : 01:46:40.000000000
NUMBER_OF_FRAMES                         : 3
NUMBER_OF_BYTES                          : 312
_STATISTICS_WRITING_APP                  : mkvmerge v8.6.1 ('Flying') 64bit
_STATISTICS_WRITING_DATE_UTC             : 2015-12-24 10:46:45
_STATISTICS_TAGS                         : BPS DURATION NUMBER_OF_FRAMES NUMBER_OF_BYTES

Видео
Идентификатор                            : 1
Формат                                   : AVC
Формат/Информация                        : Advanced Video Codec
Профиль формата                          : High@L4.1
Параметр CABAC формата                   : Да
Параметр ReFrames формата                : 5 кадров
Идентификатор кодека                     : V_MPEG4/ISO/AVC
Продолжительность                        : 1 ч. 48 м.
Битрейт                                  : 5415 Кбит/сек
Номинальный битрейт                      : 8522 Кбит/сек
Ширина                                   : 1920 пикселей
Высота                                   : 800 пикселей
Соотношение сторон                       : 2,40:1
Режим частоты кадров                     : Постоянный
Частота кадров                           : 25,000 кадров/сек
Цветовое пространство                    : YUV
Субдискретизация насыщенности            : 4:2:0
Битовая глубина                          : 8 бит
Тип развёртки                            : Прогрессивная
Бит/(Пиксели*Кадры)                      : 0.141
Размер потока                            : 4,11 Гбайт (73%)
Библиотека кодирования                   : x264 core 146 r2538 121396c
Настройки программы                      : cabac=1 / ref=5 / deblock=1:1:1 / analyse=0x3:0x133 / me=umh / subme=7 / psy=1 / psy_rd=1.00:0.00 / mixed_ref=1 / me_range=16 / chroma_me=1 / trellis=1 / 8x8dct=1 / cqm=0 / deadzone=21,11 / fast_pskip=0 / chroma_qp_offset=-2 / threads=12 / lookahead_threads=2 / sliced_threads=0 / nr=0 / decimate=1 / interlaced=0 / bluray_compat=0 / constrained_intra=0 / bframes=3 / b_pyramid=2 / b_adapt=2 / b_bias=0 / direct=3 / weightb=1 / open_gop=0 / weightp=2 / keyint=250 / keyint_min=25 / scenecut=40 / intra_refresh=0 / rc_lookahead=50 / rc=2pass / mbtree=1 / bitrate=8522 / ratetol=1.0 / qcomp=0.60 / qpmin=0 / qpmax=69 / qpstep=4 / cplxblur=20.0 / qblur=0.5 / ip_ratio=1.40 / aq=1:1.00
Язык                                     : French
Default                                  : Да
Forced                                   : Нет

Аудио #1
Идентификатор                            : 2
Формат                                   : AC-3
Формат/Информация                        : Audio Coding 3
Расширение режима                        : CM (complete main)
Параметр Endianness формата              : Big
Идентификатор кодека                     : A_AC3
Продолжительность                        : 1 ч. 48 м.
Вид битрейта                             : Постоянный
Битрейт                                  : 384 Кбит/сек
Каналы                                   : 6 каналов
Расположение каналов                     : Front: L C R, Side: L R, LFE
Частота                                  : 48,0 КГц
Битовая глубина                          : 16 бит
Метод сжатия                             : С потерями
Размер потока                            : 298 Мбайт (5%)
Язык                                     : Russian
Default                                  : Да
Forced                                   : Нет

Аудио #2
Идентификатор                            : 3
Формат                                   : DTS
Формат/Информация                        : Digital Theater Systems
Режим                                    : 16
Параметр Endianness формата              : Big
Идентификатор кодека                     : A_DTS
Продолжительность                        : 1 ч. 48 м.
Вид битрейта                             : Постоянный
Битрейт                                  : 1509 Кбит/сек
Каналы                                   : 6 каналов
Расположение каналов                     : Front: L C R, Side: L R, LFE
Частота                                  : 48,0 КГц
Битовая глубина                          : 24 бит
Метод сжатия                             : С потерями
Размер потока                            : 1,15 Гбайт (20%)
Заголовок                                : Français / French
Язык                                     : French
Default                                  : Нет
Forced                                   : Нет

Текст
Идентификатор                            : 4
Формат                                   : UTF-8
Идентификатор кодека                     : S_TEXT/UTF8
Идентификатор кодека/Информация          : UTF-8 Plain Text
Язык                                     : Russian
Default                                  : Да
Forced                                   : Да


скриншот   скриншот   скриншот  
pb.wtf



Скачать Мой друг Дед Мороз через торрент http://pic1.kartinco.top/images/10/ejpqs.jpg Скачать фильм Мой друг Дед Мороз через торрент бесплантно в хорошем качестве Описание: В ночь на Рождество 6-летний Антуан загадал только одно желание - покататься в санях Санта-Клауса между звёзд, рассыпанных по ... 5 10 1
Торрент: Зарегистрирован [2015-12-24 21:58] · скачан: 75 раз
Статус: T временная
Размер: 5.66 GB
Как cкачать? Как скачать Мой друг Дед Мороз через торрент | qTorrent

% Раздел Тема Автор DL S | L
R.G. Resident & PiratVoice - Фильмы, Видео [ 1.44 GB ] Мой друг Дед Мороз / Le père Noël [2014 HDRip-AVC многоголосый R.G.Resident schultz Скачать
1 | 0
Фильмы 2014 [DVDrip, WEB-DLRip, HDrip] [ 709 MB ] Мой друг Дед Мороз / Le père Noël [2014 HDRip многоголосый закадровый ""] coc900 Скачать
1 | 0
Фильмы 2015 [DVDrip, WEB-DLRip, HDrip] [ 1.36 GB ] Мой друг Дед Мороз / Le père Noël [2014 HDRip] MVO $-DRON-$ Скачать
1 | 0

28-11-2019 20:33  

Отключить всю рекламу на сайте

    Дорогой пользователь! Огромная просьба, поблагодарите релизера, оцените раздачу и оставьте свои комментарий, если Вы скачали Мой друг Дед Мороз через торрент бесплатно! Внесите свою лепту в развитие PiratBit!
    Комментировать посты могут только пользователи прошедшие не сложную регистрацию
    Показать сообщения:    

    Мой друг Дед Мороз через торрент
    Скачать бесплатно Мой друг Дед Мороз
    Мой друг Дед Мороз скачать торрент
    Мой друг Дед Мороз смотреть онлайн
    Cкачать фильм Мой друг Дед Мороз бесплатно
    Мой друг Дед Мороз скачать торрент в хорошем качестве
    Мой друг Дед Мороз смотреть онлайн бесплатно в хорошем качестве


    Вы не можете начинать темы
    Вы не можете отвечать на сообщения
    Вы не можете редактировать свои сообщения
    Вы не можете удалять свои сообщения
    Вы не можете голосовать в опросах
    Вы не можете прикреплять файлы к сообщениям
    Вы можете скачивать файлы