Ссылка на приватное зеркало нашего сайта всего за 1$. Внимание количество ограничено!!!

2 сезон

iTunes

1 сезон

1

iTunes

iTunes

iTunes

1 сезон

RePack

30

ИГРА 18+

pack

ВАЖНО

!!Акция!!

Alien_RageХит недели

RePack

MK11
pack

Забери бонус

RePack

jed

!!Акция!!

Alien_Rage

RePack

fifa19

RePack

Assassins Creed: Odyssey

RePack

NEED FOR SPEED™ PAYBACK

4 сезон

9 сезон

Бесстыжие 9 сезон

Все сериалы

все сериалы на PB.wtf

RePack

FAR CRY 5
  

Стажёр / The Intern (Нэнси Майерс) [2015, мелодрама, комедия, WEB-DLRip-AVC, Дубляж - iTunes] От R.G.Resident pb.wtf

Стажёр через торрент pb.wtf

Размер: 2.66 GB | Добавлен: 4 года 9 мес. назад | Торрент скачан:1057 раз
Скачать  

24-12-2015 23:37 Стажёр Скачать торрент  

Стажёр / The Intern
««Опыт всегда в моде»»


Год выпуска: 2015
Страна: США
Жанр: мелодрама, комедия

Продолжительность: 02:01:36
Перевод: Дубляж - iTunes
Режиссер: Нэнси Майерс
В ролях:

Роберт Де Ниро (Ben), Энн Хэтэуэй (Jules), Рене Руссо (Fiona), Андерс Холм (Matt), ДжоДжо Кушнер (Paige), Эндрю Рэннеллс (Cameron), Адам Дивайн (Jason), Илан Кригсфелд (Neighborhood Watch), Зак Перлман (Davis), Джейсон Орли (Lewis), Кристина Шерер (Becky), Нат Вулф (Justin)
Описание:
70-летний вдовец Бен Уитакер обнаруживает, что выход на пенсию - еще не конец. Пользуясь случаем, он становится старшим стажером в интернет-магазине модной одежды под руководством Джулс Остин.
Мировая премьера: 15 сентября 2015

Качество: WEB-DLRip-AVC (исх.WEB-DLRip 1080р) Rip by White Smoke

Формат: MKV
Видео: AVC, 1024x576 (16:9), 2364 kbps, 23,976 fps, 0,167 bpp
Аудио: AC3 / 5.1 / 48 kHz / 384 kbps / Русский
Аудио: AC3 / 5.1 / 48 kHz / 384 kbps / Английский

Код:

Общее
Уникальный идентификатор : 223679468941534712552842687502537216245 (0xA847194593C29CC48968E3C7580450F5)
Полное имя : D:ЗагрузкиThe.Intern.2015.WEB-DLRip-AVC.by.White Smoke.R.G.Resident.mkv
Формат : Matroska
Версия формата : Version 2
Размер файла : 2,66 Гбайт
Продолжительность : 2 ч. 1 м.
Общий поток : 3133 Кбит/сек
Название фильма : The Intern.2015.WEB-DLRip-AVC.by.White Smoke.R.G.Resident.mkv
Дата кодирования : UTC 2015-12-31 13:32:08
Программа кодирования : mkvmerge v5.6.0 ('Kenya Kane') built on May 27 2012 16:44:04
Библиотека кодирования : libebml v1.2.3 + libmatroska v1.3.0

Видео
Идентификатор : 1
Формат : AVC
Формат/Информация : Advanced Video Codec
Профиль формата : High@L4.1
Параметр CABAC формата : Да
Параметр ReFrames формата : 12 кадров
Идентификатор кодека : V_MPEG4/ISO/AVC
Продолжительность : 2 ч. 1 м.
Битрейт : 2364 Кбит/сек
Ширина : 1024 пикселя
Высота : 576 пикселей
Соотношение сторон : 16:9
Режим частоты кадров : Постоянный
Частота кадров : 23,976 кадра/сек
Цветовое пространство : YUV
Субдискретизация насыщенности : 4:2:0
Битовая глубина : 8 бит
Тип развёртки : Прогрессивная
Бит/(Пиксели*Кадры) : 0.167
Размер потока : 1,96 Гбайт (73%)
Заголовок : The Intern.2015.WEB-DLRip-AVC.by.White Smoke.R.G.Resident.mkv
Библиотека кодирования : x264 core 146 r2538 121396c
Настройки программы : cabac=1 / ref=12 / deblock=1:-2:-2 / analyse=0x3:0x113 / me=umh / subme=9 / psy=1 / psy_rd=1.00:0.00 / mixed_ref=1 / me_range=32 / chroma_me=1 / trellis=2 / 8x8dct=1 / cqm=0 / deadzone=21,11 / fast_pskip=0 / chroma_qp_offset=-2 / threads=6 / lookahead_threads=1 / sliced_threads=0 / nr=0 / decimate=0 / interlaced=0 / bluray_compat=0 / constrained_intra=0 / bframes=10 / b_pyramid=2 / b_adapt=2 / b_bias=0 / direct=3 / weightb=1 / open_gop=0 / weightp=2 / keyint=250 / keyint_min=23 / scenecut=40 / intra_refresh=0 / rc_lookahead=60 / rc=2pass / mbtree=0 / bitrate=2364 / ratetol=1.0 / qcomp=0.60 / qpmin=0 / qpmax=69 / qpstep=4 / cplxblur=20.0 / qblur=0.5 / vbv_maxrate=14000 / vbv_bufsize=14000 / nal_hrd=none / filler=0 / ip_ratio=1.40 / pb_ratio=1.30 / aq=1:0.80
Default : Да
Forced : Нет

Аудио #1
Идентификатор : 2
Формат : AC-3
Формат/Информация : Audio Coding 3
Расширение режима : CM (complete main)
Параметр Endianness формата : Big
Идентификатор кодека : A_AC3
Продолжительность : 2 ч. 1 м.
Вид битрейта : Постоянный
Битрейт : 384 Кбит/сек
Каналы : 6 каналов
Расположение каналов : Front: L C R, Side: L R, LFE
Частота : 48,0 КГц
Битовая глубина : 16 бит
Метод сжатия : С потерями
Размер потока : 334 Мбайт (12%)
Язык : Russian
Default : Да
Forced : Нет

Аудио #2
Идентификатор : 3
Формат : AC-3
Формат/Информация : Audio Coding 3
Расширение режима : CM (complete main)
Параметр Endianness формата : Big
Идентификатор кодека : A_AC3
Продолжительность : 2 ч. 1 м.
Вид битрейта : Постоянный
Битрейт : 384 Кбит/сек
Каналы : 6 каналов
Расположение каналов : Front: L C R, Side: L R, LFE
Частота : 48,0 КГц
Битовая глубина : 16 бит
Метод сжатия : С потерями
Размер потока : 334 Мбайт (12%)
Язык : English
Default : Нет
Forced : Нет

Меню
00:00:00.000 : en:1
00:09:30.000 : en:2
00:19:54.000 : en:3
00:29:39.000 : en:4
00:30:29.000 : en:5
00:41:17.000 : en:6
00:50:18.000 : en:7
01:00:33.000 : en:8
01:10:18.000 : en:9
01:19:15.000 : en:10
01:30:58.000 : en:11
01:42:48.000 : en:12
01:51:10.000 : en:13
01:56:41.000 : en:14


© Оформление by White Smoke pb.wtf



Скачать Стажёр через торрент http://i5.imageban.ru/out/2015/12/25/652dcd31c8e9871d85725dcd18349771.jpg Скачать фильм Стажёр через торрент бесплантно в хорошем качестве Описание: 70-летний вдовец Бен Уитакер обнаруживает, что выход на пенсию - еще не конец. Пользуясь случаем, он становится старшим стажером ... 9.9 10 92
Info! Золотая раздача, скачанное не засчитывается.
Торрент: Зарегистрирован [2015-12-31 13:50] · скачан: 1 057 раз
Статус: √ проверено
Размер: 2.66 GB
Как cкачать? Как скачать Стажёр через торрент | qTorrent

% Раздел Тема Автор DL S | L
R.G. Resident & PiratVoice - Фильмы, Видео [ 2.17 GB ] Стажёр / The Intern [2015 HDRip ()] от R.G. Resident Dean24 Скачать
1 | 1

28-11-2019 20:33  

Отключить всю рекламу на сайте

24-12-2015 23:52 Стажёр Скачать торрент  

хороший фильм.pb.wtf



25-12-2015 03:13 Стажёр Скачать торрент  

Норм.фильм благодарю.всех снаступающим pb.wtf



25-12-2015 10:54 Стажёр Скачать торрент  

Не припомню плохих фильмов с участием Де Ниро.Спасибо за ещё один.pb.wtf



26-12-2015 08:03 Стажёр Скачать торрент  

С наступающим Вас ребят!!
Ждал этот фильм... и не только я)) сегодняшний вечер перестанет быть томным! Спасибо релизеруpb.wtf



26-12-2015 20:16 Стажёр Скачать торрент  

Лучший фильм 2015 года. Звездные воины - отдыхают.pb.wtf



26-12-2015 20:35 Стажёр Скачать торрент  

хороший фильмpb.wtf



27-12-2015 09:18 Стажёр Скачать торрент  

Фильм замечательный, отдохнули в кругу семьи. Давно таких не было. Никакой "чернухи", жизненный и веселый. Советую!!!pb.wtf



28-12-2015 12:41 Стажёр Скачать торрент  

Отличный фильм!pb.wtf



28-12-2015 16:24 Стажёр Скачать торрент  

Отпадный, стоит смотреть!)pb.wtf



28-12-2015 16:35 Стажёр Скачать торрент  

Отличный-светлый фильм! pb.wtf



28-12-2015 18:30 Стажёр Скачать торрент  

просмотреть с удовольствием 1 раз не более тогоpb.wtf



28-12-2015 19:05 Стажёр Скачать торрент  

Фильм 9 из 10. Много соплей как по мне в концеpb.wtf



29-12-2015 00:52 Стажёр Скачать торрент  

Напишу прямо и честно, мне совсем не понравился. Нудный и легко предсказуемый. Полный шлак.pb.wtf



31-12-2015 18:40 Стажёр Скачать торрент  

nixon12 писал(а):

Напишу прямо и честно, мне совсем не понравился. Нудный и легко предсказуемый. Полный шлак.

смотри мстителей и звездные войныpb.wtf



10-01-2016 10:56 Стажёр Скачать торрент  

мне понравилосьpb.wtf



Друзья, наш проект PiratBit построен на чистом энтузиазме. Денег от рекламы он приносит мало, потому как нет хороших, богатых рекламодателей, которые бы хотели работать с сайтами, которые нарушают законодательство той или иной страны, да и вешать какую-то шлако-рекламу с вирусами тоже мы не хотим, поскольку мы уважаем своих пользователей и Ваша безопасность на нашем сайте для нас превыше всего. В связи с этим, мы вынуждены просить помощи у каждого из Вас. Каких-то 3, 5, 10 рублей для каждого из Вас по большому счету копейки, а для нас это будет хорошая поддержка.
Нашими приоритетами всегда были качество и быстрота везде и во всем!!!
Технически так сложилось, чтобы все "летало" мы используем 4 мощных абузоустойчивых сервера, каждый из которых стоит 100$ в месяц.
Ребята, мы будем рады любой помощи, надеюсь на понимание Devi...

Важно, если ваш платеж составляет больше 100 руб.(единоразово) то мы для вас отключим рекламу на месяц, 200=2мес., 300=3мес., 400=4мес., если больше чем 499 руб.(единоразово) то на 6 месяцев, УКАЗЫВАЙТЕ СВОЙ НИК В ПРИМЕЧАНИИ К ПЛАТЕЖУ!


Яндекс Деньги,QIWI,WebMoney,Steam,Payeer,СберБанк,Мобильный,BitCoin,PayPal
    Дорогой пользователь! Огромная просьба, поблагодарите релизера, оцените раздачу и оставьте свои комментарий, если Вы скачали Стажёр через торрент бесплатно! Внесите свою лепту в развитие PiratBit!
    Комментировать посты могут только пользователи прошедшие не сложную регистрацию
    Показать сообщения:    

    Стажёр через торрент
    Скачать бесплатно Стажёр
    Стажёр скачать торрент
    Стажёр смотреть онлайн
    Cкачать фильм Стажёр бесплатно
    Стажёр скачать торрент в хорошем качестве
    Стажёр смотреть онлайн бесплатно в хорошем качестве


    Вы не можете начинать темы
    Вы не можете отвечать на сообщения
    Вы не можете редактировать свои сообщения
    Вы не можете удалять свои сообщения
    Вы не можете голосовать в опросах
    Вы не можете прикреплять файлы к сообщениям
    Вы можете скачивать файлы