Ссылка на приватное зеркало нашего сайта всего за 1$. Внимание количество ограничено!!!

2 сезон

iTunes

1 сезон

1

iTunes

iTunes

iTunes

1 сезон

RePack

30

ИГРА 18+

pack

ВАЖНО

!!Акция!!

Alien_RageХит недели

RePack

MK11
pack

Забери бонус

RePack

jed

!!Акция!!

Alien_Rage

RePack

fifa19

RePack

Assassins Creed: Odyssey

RePack

NEED FOR SPEED™ PAYBACK

4 сезон

9 сезон

Бесстыжие 9 сезон

Все сериалы

все сериалы на PB.wtf

RePack

FAR CRY 5
  

Мой друг Дед Мороз / Le père Noël (Александр Коффре) [2014, комедия, HDRip-AVC, Профессиональный многоголосый [Лицензия / iTunes] R.G.Resident pb.wtf

Мой друг Дед Мороз через торрент pb.wtf

Размер: 1.44 GB | Добавлен: 4 года 9 мес. назад | Торрент скачан:213 раз
Скачать  

25-12-2015 07:20 Мой друг Дед Мороз Скачать торрент  

Мой друг Дед Мороз / Le père Noël
Год выпуска: 2014
Страна: Франция, Бельгия
Жанр: комедия
Продолжительность: 01:17:51
Перевод: Профессиональный многоголосый [Лицензия / iTunes]
Режиссер: Александр Коффре
В ролях:

Тахар Рахим (Le Père Noël), Виктор Кабаль (Victor), Аннелиз Эм (La mère), Микаэль Абитбуль (Le Père Fouettard), Филипп Реббо (Camille), Амели Гленн (Marie), Жан Франсуа Кэйри (Policier métro), Джибрил Гуйе (Policier métro), Naoufel Aliju (Sbire Père Noël), Сатья Дюсаги (Sbire Père Noël), Шарли Дюпон (Homme cambriolé), Lou Ballon (Enfant homme cambriolé)
Описание:
В ночь на Рождество 6-летний Антуан загадал только одно желание - покататься в санях Санта-Клауса между звёзд, рассыпанных по небу. И тут, словно по мановению волшебной палочки, на балконе появляется Санта. Антуан был слишком удивлён, чтобы признать в нём бородатого грабителя, переодетого в новогодний костюм, который отправился по парижским квартирам в поисках богатств.
Мировая премьера: 4 декабря 2014

Качество: HDRip-AVC Rip by schultz R.G.Resident
Формат: MKV
Видео: AVC, 1024x424 (2.40:1), 2264 kbps, 25 fps, 0,209 bpp
Аудио: AC3 / 5.1 / 48 kHz / 384 kbps / 16 bit

Код:

General
Unique ID                                : 238230681912231849475982171091433743639 (0xB3398F7627BD6E7FB8E3FF5D53BCE517)
Complete name                            : D:\download\M0y.DruG.DeD.m0r0z.2014.HDRip-AVC by schultz R.G.Resident.mkv
Format                                   : Matroska
Format version                           : Version 2
File size                                : 1.44 GiB
Duration                                 : 1h 17mn
Overall bit rate                         : 2 649 Kbps
Encoded date                             : UTC 2015-12-25 01:23:27
Writing application                      : mkvmerge v6.1.0 ('Old Devil') built on Mar  4 2013 09:10:42
Writing library                          : libebml v1.3.0 + libmatroska v1.4.0

Video
ID                                       : 1
Format                                   : AVC
Format/Info                              : Advanced Video Codec
Format profile                           : High@L4.1
Format settings, CABAC                   : Yes
Format settings, ReFrames                : 12 frames
Codec ID                                 : V_MPEG4/ISO/AVC
Duration                                 : 1h 17mn
Bit rate                                 : 2 264 Kbps
Width                                    : 1 024 pixels
Height                                   : 424 pixels
Display aspect ratio                     : 2.40:1
Frame rate                               : 25.000 fps
Color space                              : YUV
Chroma subsampling                       : 4:2:0
Bit depth                                : 8 bits
Scan type                                : Progressive
Bits/(Pixel*Frame)                       : 0.209
Stream size                              : 1.20 GiB (84%)
Writing library                          : x264 core 130 r2273 b3065e6
Encoding settings                        : cabac=1 / ref=12 / deblock=1:-2:-2 / analyse=0x3:0x113 / me=umh / subme=11 / psy=1 / psy_rd=1.00:0.15 / mixed_ref=1 / me_range=32 / chroma_me=1 / trellis=2 / 8x8dct=1 / cqm=0 / deadzone=21,11 / fast_pskip=1 / chroma_qp_offset=-3 / threads=12 / lookahead_threads=3 / sliced_threads=0 / nr=0 / decimate=0 / interlaced=0 / bluray_compat=0 / constrained_intra=0 / bframes=13 / b_pyramid=2 / b_adapt=2 / b_bias=0 / direct=3 / weightb=1 / open_gop=0 / weightp=2 / keyint=240 / keyint_min=23 / scenecut=40 / intra_refresh=0 / rc_lookahead=40 / rc=2pass / mbtree=1 / bitrate=2264 / ratetol=1.0 / qcomp=0.60 / qpmin=0 / qpmax=69 / qpstep=4 / cplxblur=20.0 / qblur=0.5 / vbv_maxrate=17500 / vbv_bufsize=14000 / nal_hrd=none / ip_ratio=1.40 / aq=1:0.80
Default                                  : Yes
Forced                                   : No

Audio
ID                                       : 2
Format                                   : AC-3
Format/Info                              : Audio Coding 3
Mode extension                           : CM (complete main)
Codec ID                                 : A_AC3
Duration                                 : 1h 17mn
Bit rate mode                            : Constant
Bit rate                                 : 384 Kbps
Channel(s)                               : 6 channels
Channel positions                        : Front: L C R, Side: L R, LFE
Sampling rate                            : 48.0 KHz
Bit depth                                : 16 bits
Compression mode                         : Lossy
Stream size                              : 214 MiB (14%)
Default                                  : Yes
Forced                                   : No


pb.wtf



Скачать Мой друг Дед Мороз через торрент http://pic1.kartinco.top/images/10/msz9l.jpg Скачать фильм Мой друг Дед Мороз через торрент бесплантно в хорошем качестве Описание: В ночь на Рождество 6-летний Антуан загадал только одно желание - покататься в санях Санта-Клауса между звёзд, рассыпанных по ... 9 10 10
Info! Золотая раздача, скачанное не засчитывается.
Торрент: Зарегистрирован [2015-12-25 07:20] · скачан: 213 раз
Статус: √ проверено
Размер: 1.44 GB
Как cкачать? Как скачать Мой друг Дед Мороз через торрент | qTorrent



Последний раз редактировалось: schultz (2016-05-15 06:20), всего редактировалось 1 раз

28-11-2019 20:33  

Отключить всю рекламу на сайте

25-12-2015 17:53 Мой друг Дед Мороз Скачать торрент  

Товарищи в шапке Мой друг Дед Мороз / Le père Noël (Александр Коффре) [2014комедия, HDRip-AVC, Профессиональный многоголосый [Лицензия / iTunes] R.G.Resident,в оформлении Год выпуска: 2015pb.wtf



26-12-2015 11:25 Мой друг Дед Мороз Скачать торрент  

Кто нибудь смотрел эту фигню?pb.wtf



    Дорогой пользователь! Огромная просьба, поблагодарите релизера, оцените раздачу и оставьте свои комментарий, если Вы скачали Мой друг Дед Мороз через торрент бесплатно! Внесите свою лепту в развитие PiratBit!
    Комментировать посты могут только пользователи прошедшие не сложную регистрацию
    Показать сообщения:    

    Мой друг Дед Мороз через торрент
    Скачать бесплатно Мой друг Дед Мороз
    Мой друг Дед Мороз скачать торрент
    Мой друг Дед Мороз смотреть онлайн
    Cкачать фильм Мой друг Дед Мороз бесплатно
    Мой друг Дед Мороз скачать торрент в хорошем качестве
    Мой друг Дед Мороз смотреть онлайн бесплатно в хорошем качестве


    Вы не можете начинать темы
    Вы не можете отвечать на сообщения
    Вы не можете редактировать свои сообщения
    Вы не можете удалять свои сообщения
    Вы не можете голосовать в опросах
    Вы не можете прикреплять файлы к сообщениям
    Вы можете скачивать файлы