Ссылка на приватное зеркало нашего сайта всего за 1$. Внимание количество ограничено!!!

2 сезон

iTunes

1 сезон

1

iTunes

iTunes

iTunes

1 сезон

RePack

30

ИГРА 18+

pack

ВАЖНО

!!Акция!!

Alien_RageХит недели

RePack

MK11
pack

Забери бонус

RePack

jed

!!Акция!!

Alien_Rage

RePack

fifa19

RePack

Assassins Creed: Odyssey

RePack

NEED FOR SPEED™ PAYBACK

4 сезон

9 сезон

Бесстыжие 9 сезон

Все сериалы

все сериалы на PB.wtf

RePack

FAR CRY 5
  

Мой друг Дед Мороз / Le père Noël (Александр Коффре) [2014 г., комедия, HDRip, Профессиональный многоголосый закадровый "iTunes"] pb.wtf

Мой друг Дед Мороз через торрент pb.wtf

Размер: 709 MB | Добавлен: 4 года 9 мес. назад | Торрент скачан:66 раз
Скачать  

25-12-2015 18:13 Мой друг Дед Мороз Скачать торрент  

Мой друг Дед Мороз / Le père Noël
Год выпуска: 2014
Страна: Франция, Бельгия / Quad Productions, Atitlan, Mars Films
Жанр: комедия
Продолжительность: 01:17:51
Перевод: Профессиональный многоголосый закадровый (iTunes)

Режиссер: Александр Коффре

IMDB 6.20 (247)


В ролях: Тахар Рахим, Виктор Кабаль, Аннелиз Эм, Микаэль Абитбуль, Филипп Реббо, Амели Гленн, Жан Франсуа Кэйри, Джибрил Гуйе, Сатья Дюсаги

Описание: В ночь на Рождество 6-летний Антуан загадал только одно желание — покататься в санях Санта-Клауса между звёзд, рассыпанных по небу. И тут, словно по мановению волшебной палочки, на балконе появляется Санта. Антуан был слишком удивлён, чтобы признать в нём бородатого грабителя, переодетого в новогодний костюм, который отправился по парижским квартирам в поисках богатств.

Качество: HDRip
Формат: AVI
Видео кодек: XviD
Аудио кодек: MP3
Видео: 640x264 (2.42:1), 25 fps, XviD build 50 ~1134 kbps avg, 0.27 bit/pixel
Аудио: 48 kHz, MPEG Layer 3, 2 ch, ~128.00 kbps avg


Общее
Полное имя : F:\кино\Мой друг Дед Мороз.2014.HDRip.700mb.avi
Формат : AVI
Формат/Информация : Audio Video Interleave
Размер файла : 709 Мбайт
Продолжительность : 1 ч. 17 м.
Общий поток : 1273 Кбит/сек
Программа кодирования : VirtualDubMod 1.5.10.3 | www.virtualdub-fr.org || (build 2550/release)
Библиотека кодирования : VirtualDubMod build 2550/release

Видео
Идентификатор : 0
Формат : MPEG-4 Visual
Профиль формата : Advanced Simple@L5
Параметр BVOP формата : 2
Параметр QPel формата : Нет
Параметр GMC формата : Без точки перехода
Параметр матрицы формата : Default (H.263)
Идентификатор кодека : XVID
Идентификатор кодека/Подсказка : XviD
Продолжительность : 1 ч. 17 м.
Битрейт : 1135 Кбит/сек
Ширина : 640 пикселей
Высота : 264 пикселя
Соотношение сторон : 2,40:1
Частота кадров : 25,000 кадров/сек
Цветовое пространство : YUV
Субдискретизация насыщенности : 4:2:0
Битовая глубина : 8 бит
Тип развёртки : Прогрессивная
Метод сжатия : С потерями
Бит/(Пиксели*Кадры) : 0.269
Размер потока : 632 Мбайт (89%)
Библиотека кодирования : XviD 1.2.1 (UTC 2008-12-04)

Аудио
Идентификатор : 1
Формат : MPEG Audio
Версия формата : Version 1
Профиль формата : Layer 3
Режим : Joint stereo
Расширение режима : MS Stereo
Идентификатор кодека : 55
Идентификатор кодека/Подсказка : MP3
Продолжительность : 1 ч. 17 м.
Вид битрейта : Постоянный
Битрейт : 128 Кбит/сек
Каналы : 2 канала
Частота : 48,0 КГц
Метод сжатия : С потерями
Размер потока : 71,3 Мбайт (10%)
Выравнивание : Соединение по промежуткам
Продолжительность промежутка : 40 мс. (1,00 видеокадр)
Время предзагрузки промежутка : 504 мс.
Библиотека кодирования : LAME3.99r
Настройки программы : -m j -V 4 -q 2 -lowpass 17 -b 128

pb.wtf



Скачать Мой друг Дед Мороз через торрент http://pic.kartinco.top/images/11/fyapv.jpg Скачать фильм Мой друг Дед Мороз через торрент бесплантно в хорошем качестве Описание: В ночь на Рождество 6-летний Антуан загадал только одно желание — покататься в санях Санта-Клауса между звёзд, рассыпанных по ... 7.8 10 8
Торрент: Зарегистрирован [2015-12-25 18:13] · скачан: 66 раз
Статус: √ проверено
Размер: 709 MB
Как cкачать? Как скачать Мой друг Дед Мороз через торрент | qTorrent

% Раздел Тема Автор DL S | L
R.G. Resident & PiratVoice - Фильмы, Видео [ 1.44 GB ] Мой друг Дед Мороз / Le père Noël [2014 HDRip-AVC многоголосый R.G.Resident schultz Скачать
1 | 0
T Фильмы [HD 720p, 1080p] (Хороший звук DUB, MVO) [ 5.66 GB ] Мой друг Дед Мороз / Le père Noël [2014 BDRip 1080p многоголосый schultz Скачать
1 | 0
Фильмы 2015 [DVDrip, WEB-DLRip, HDrip] [ 1.36 GB ] Мой друг Дед Мороз / Le père Noël [2014 HDRip] MVO $-DRON-$ Скачать
1 | 0

28-11-2019 20:33  

Отключить всю рекламу на сайте

    Дорогой пользователь! Огромная просьба, поблагодарите релизера, оцените раздачу и оставьте свои комментарий, если Вы скачали Мой друг Дед Мороз через торрент бесплатно! Внесите свою лепту в развитие PiratBit!
    Комментировать посты могут только пользователи прошедшие не сложную регистрацию
    Показать сообщения:    

    Мой друг Дед Мороз через торрент
    Скачать бесплатно Мой друг Дед Мороз
    Мой друг Дед Мороз скачать торрент
    Мой друг Дед Мороз смотреть онлайн
    Cкачать фильм Мой друг Дед Мороз бесплатно
    Мой друг Дед Мороз скачать торрент в хорошем качестве
    Мой друг Дед Мороз смотреть онлайн бесплатно в хорошем качестве


    Вы не можете начинать темы
    Вы не можете отвечать на сообщения
    Вы не можете редактировать свои сообщения
    Вы не можете удалять свои сообщения
    Вы не можете голосовать в опросах
    Вы не можете прикреплять файлы к сообщениям
    Вы можете скачивать файлы