Ссылка на приватное зеркало нашего сайта всего за 1$. Внимание количество ограничено!!!

2 сезон

iTunes

1 сезон

1

2 сезон

2 сезон

iTunes

1 сезон

RePack

30

Ultimate

ВАЖНО

ИГРА 18+

pack

RePack

MK11
pack

Забери бонус

RePack

jed

!!Акция!!

Alien_Rage

RePack

fifa19

RePack

Assassins Creed: Odyssey

RePack

NEED FOR SPEED™ PAYBACK

4 сезон

9 сезон

Бесстыжие 9 сезон

Все сериалы

все сериалы на PB.wtf

RePack

FAR CRY 5
  

Жертва (мини-сериал) / Prey / Сезон: 2 / Серии 1-3 из 3 (Ник Мерфи / Nick Murphy, Льюис Арнольд / Lewis Arnold) [2015, Великобритания, триллер, драма, криминал, HDTVRip] MVO [Viruse Project] pb.wtf

Жертва через торрент pb.wtf

Размер: 1.78 GB | Добавлен: 4 года 10 мес. назад | Торрент скачан:50 раз
Скачать  

26-12-2015 02:16 Жертва Скачать торрент  

Жертва 2 (мини-сериал) / Prey 2


  • Год выпуска: 2015
  • Страна: Великобритания
  • Жанр: триллер, драма, криминал
  • Продолжительность: 00:45:12 (Серия)
  • Перевод: Профессиональный многоголосый закадровый [Viruse Project]

  • Режиссер: Ник Мерфи / Nick Murphy, Льюис Арнольд / Lewis Arnold
  • В ролях:
    Анастасия Хилл, Рози Кавальеро, Эдриен Эдмондсон и др.


  • Может ли один телефонный звонок перевернуть жизнь? Скромный тюремный охранник, Дэвид Мёрдок, оказавшийся не в том месте не в то время, вынужден участвовать в непонятной криминальной игре, ставка в которой — жизнь его дочери и ещё не родившегося внука.
    Сумеет ли детектив-сержант Сьзан Райнхард не только распутать это сложное дело, но и решить проблемы в собственной жизни?
  • Рейтинг:



  • Качество: HDTVRip
  • Формат: :AVI
  • Видео кодек: XviD
  • Аудио кодек: MP3
  • Видео: 720x400 (16:9), 1654 kbps, 25 fps, 0,230 bpp
  • Аудио: 2.0 / 48 kHz / 192 kbps
  • Релиз от: GEKADOL

    Код:

    Внимание! Раздача ведётся путём добавления новых серий; при каждом добавлении создаётся новый торрент. Чтобы начать докачку новой серии, пользователям необходимо сделать следующее:
    (1) остановить скачивание,
    (2) удалить старый торрент у себя из клиента (старые серии удалять не надо),
    (3) скачать новый торрент и запустить его у себя в клиенте вместо старого, при этом указать клиенту путь в старую папку куда и должно происходить скачивание новых серий.
    Ваш клиент при этом должен произвести хеширование (проверку) старой папки (если не производит сам - помогите ему сделать это), и будет докачивать только те серии которых у вас ещё нет. Старые серии при этом не удаляются, а продолжают раздаваться!
    Eсли вы уже удалили старые серии, то предотвратить повторную закачку старых серий можно, отжав галочку в соответствующих местах при запуске нового торрента. По возможности, желательно не удалять старые серии как можно дольше чтобы релизёр не столько продолжал раздавать старые серии, а смог сконцентрироваться на новых.


    Код:

    General
    Complete name                            : H:\Prey.UK.S02.ViruseProject\Prey.UK.S02E02.ViruseProject.avi
    Format                                   : AVI
    Format/Info                              : Audio Video Interleave
    File size                                : 600 MiB
    Duration                                 : 45mn 12s
    Overall bit rate                         : 1 856 Kbps
    Writing application                      : VirtualDubMod 1.5.10.2 (build 2540/release)
    Writing library                          : VirtualDubMod build 2540/release

    Video
    ID                                       : 0
    Format                                   : MPEG-4 Visual
    Format profile                           : Advanced Simple@L5
    Format settings, BVOP                    : 1
    Format settings, QPel                    : No
    Format settings, GMC                     : No warppoints
    Format settings, Matrix                  : Default (MPEG)
    Codec ID                                 : XVID
    Codec ID/Hint                            : XviD
    Duration                                 : 45mn 12s
    Bit rate                                 : 1 655 Kbps
    Width                                    : 720 pixels
    Height                                   : 400 pixels
    Display aspect ratio                     : 16:9
    Frame rate                               : 25.000 fps
    Color space                              : YUV
    Chroma subsampling                       : 4:2:0
    Bit depth                                : 8 bits
    Scan type                                : Progressive
    Compression mode                         : Lossy
    Bits/(Pixel*Frame)                       : 0.230
    Stream size                              : 535 MiB (89%)
    Writing library                          : XviD 1.2.1 (UTC 2008-12-04)

    Audio
    ID                                       : 1
    Format                                   : MPEG Audio
    Format version                           : Version 1
    Format profile                           : Layer 3
    Mode                                     : Joint stereo
    Mode extension                           : MS Stereo
    Codec ID                                 : 55
    Codec ID/Hint                            : MP3
    Duration                                 : 45mn 12s
    Bit rate mode                            : Constant
    Bit rate                                 : 192 Kbps
    Channel(s)                               : 2 channels
    Sampling rate                            : 48.0 KHz
    Compression mode                         : Lossy
    Stream size                              : 62.1 MiB (10%)
    Alignment                                : Aligned on interleaves
    Interleave, duration                     : 40 ms (1.00 video frame)
    Interleave, preload duration             : 504 ms




    Скриншоты:
    скриншот   скриншот   скриншот   скриншот   скриншот   скриншот  
    скриншот  

    Раздача ведётся путём добавления новых серий. Добавлена 3 серия (06.01.2016).Просьба перекачать торрент файл.

    pb.wtf



  • Скачать Жертва через торрент http://i75.fastpic.ru/big/2015/1226/aa/0e8efd01284896cf6c8b29b059a19aaa.jpg Скачать фильм Жертва через торрент бесплантно в хорошем качестве qw.png Может ли один телефонный звонок перевернуть жизнь? Скромный тюремный охранник, Дэвид Мёрдок, оказавшийся не в том месте не в то ... 10 10 1
    Info! Золотая раздача, скачанное не засчитывается.
    Торрент: Зарегистрирован [2016-01-06 02:51] · скачан: 50 раз
    Статус: √ проверено
    Размер: 1.78 GB
    Как cкачать? Как скачать Жертва через торрент | qTorrent

    % Раздел Тема Автор DL S | L
    Наши сериалы [ 2.2 GB ] на миллион. Жертвы искусства / Сезон: 2 / Серии: 1-4 из 4 [2020 WEB-DLRip] bober100 Скачать
    1 | 0
    Наши сериалы [ 7.02 GB ] на миллион. Жертвы искусства / Сезон: 2 / Серии: 1-4 из 4 [2020 HDTV 1080i] bober100 Скачать
    1 | 1
    Наши сериалы [ 2.19 GB ] на миллион. Жертвы искусства / Сезон: 2 / Серии: 1-4 из 4 [2020 WEB-DLRip-AVC] bober100 Скачать
    1 | 0
    Наши сериалы [ 2.29 GB ] на миллион. Жертвы искусства / Сезон: 2 / Серии: 1-4 из 4 [2020 SATRip] bober100 Скачать
    1 | 0
    T Фильмы (мультфильмы) cо спонсором показа (Новинки AVI/MKV) [ 1.37 GB ] Жертва / Sacrifice [2019 WEB-DLRip] MVO ["Синема УС"] bober100 Скачать
    2 | 0
    T Фильмы (мультфильмы) cо спонсором показа (Новинки AVI/MKV) [ 3.26 GB ] Жертва / Sacrifice [2019 WEB-DL 720p] MVO ["Синема УС"] bober100 Скачать
    1 | 0
    Детективы, Боевики, Триллеры [ 956 MB ] Стефан Анхем - Жертва без лица [Игорь Князев 2019 128 kbps MP3] bober100 Скачать
    1 | 0

    28-11-2019 20:33  

    Отключить всю рекламу на сайте

      Дорогой пользователь! Огромная просьба, поблагодарите релизера, оцените раздачу и оставьте свои комментарий, если Вы скачали Жертва через торрент бесплатно! Внесите свою лепту в развитие PiratBit!
      Комментировать посты могут только пользователи прошедшие не сложную регистрацию
      Показать сообщения:    

      Жертва через торрент
      Скачать бесплатно Жертва
      Жертва скачать торрент
      Жертва смотреть онлайн
      Cкачать фильм Жертва бесплатно
      Жертва скачать торрент в хорошем качестве
      Жертва смотреть онлайн бесплатно в хорошем качестве


      Вы не можете начинать темы
      Вы не можете отвечать на сообщения
      Вы не можете редактировать свои сообщения
      Вы не можете удалять свои сообщения
      Вы не можете голосовать в опросах
      Вы не можете прикреплять файлы к сообщениям
      Вы можете скачивать файлы