Ссылка на приватное зеркало всего за 1$. Внимание количество ограничено!!!

OK

1+1

iTunes

мы

OK

1

WEB-DLRip

Джокер

Пифагор

Ведьмак / The Witcher сериал

iTunes

ПШазам

ОК

Оно 2

iTunes

30
pack

Вам бонус

ВАЖНО

!!Акция!!

Alien_RageХит недели

RePack

Resident Evil 21

ИГРА 18+

pack

RePack

jed

RePack

fifa19

RePack

Assassins Creed: Odyssey

RePack

NEED FOR SPEED™ PAYBACK

4 сезон

9 сезон

Бесстыжие 9 сезон

Все сериалы

все сериалы на PB.wtf

RePack

FAR CRY 5
  

Дама в очках и с ружьем в автомобиле / La dame dans l'auto avec des lunettes et un fusil (Жоанн Сфар / Joann Sfar) [2015, триллер, BDRip-AVC от potroks] Dub [iTunes] pb.wtf

Дама в очках и с ружьем в автомобиле через торрент pb.wtf

Размер: 1.42 GB | Добавлен: 4 года 1 мес. назад | Торрент скачан:184 раза
Скачать  

26-12-2015 06:09 Дама в очках и с ружьем в автомобиле Скачать торрент  

Дама в очках и с ружьем в автомобиле / La dame dans l'auto avec des lunettes et un fusil
Год выпуска: 2015
Страна: Франция, Бельгия / Wild Bunch, Waiting For Cinema...
Жанр: триллер
Продолжительность: 01:34:48
Перевод: Дубляж [iTunes]
Субтитры: английские, французкие
Навигация по главам: есть
Режиссер: Жоанн Сфар / Joann Sfar
В ролях:

Фрейя Мавор (Dany Dorémus), Бенжамин Биолэй (Michel Caravaille), Элио Джермано (Stefano, dit Georges (Le jeune homme aux yeux noirs)), Стэйси Мартин (Anita), Тьерри Анкиссе (Le garagiste), Сандрин Ларош (La femme du garagiste), Фредерик Этерлинк (Un type de la station service), Ален Белло (L'autre type de la station service), Эдуар Жиар (Le routier bouquet de violettes), Франсуа-Доминик Блен (Le routier du relais), Ноэми Моралес (Sylvie), Лу Ламбрехт (La petite fille du garagiste)
Описание: Она самая прекрасная, самая чувственная, самая импульсивная, самая упрямая, самая незадачливая девушка. Она хотела воплотить мечту и увидеть море, а в результате попала в невероятную переделку. В чужом автомобиле и с трупом в багажнике, скрываясь от полиции и рискуя собственной жизнью, ей осталось только одно - убедить себя в том, что она еще не окончательно сошла с ума, и что она - это она, а не кто-то другой...

Качество: BDRip-AVC
Формат: MKV
Видео кодек: AVC
Аудио кодек: AC3
Видео: 1032x432 (2.40:1), 1757 kbps, 24 fps, 0,164 bit/pixel
Аудио: AC3 / 5.1 / 48 kHz / 384 kbps / 16 bit

Релиз группы:
Автор рипа: potroks

Код:

General
Unique ID                                : 180016902622932517362117893295760232764 (0x876DFE8C21A00DD5A86A96508FB8513C)
Complete name                            : N:\Триллер\Dama.v.Ochkah.i.s.Ruzhyom.v.Avtomobile.2015.RUS.BDRip.x264.-HELLYWOOD.mkv
Format                                   : Matroska
Format version                           : Version 4 / Version 2
File size                                : 1.42 GiB
Duration                                 : 1h 34mn
Overall bit rate                         : 2 142 Kbps
Movie name                               : La dame dans l'auto avec des lunettes et un fusil (2015) - HELLYWOOD
Encoded date                             : UTC 2010-02-22 21:41:31
Writing application                      : mkvmerge v5.8.0 ('No Sleep / Pillow') built on Sep 30 2012 10:57:14
Writing library                          : libebml v1.3.0 + libmatroska v1.4.0

Video
ID                                       : 1
Format                                   : AVC
Format/Info                              : Advanced Video Codec
Format profile                           : High@L4.1
Format settings, CABAC                   : Yes
Format settings, ReFrames                : 12 frames
Codec ID                                 : V_MPEG4/ISO/AVC
Duration                                 : 1h 34mn
Bit rate                                 : 1 757 Kbps
Width                                    : 1 032 pixels
Height                                   : 432 pixels
Display aspect ratio                     : 2.40:1
Frame rate                               : 24.000 fps
Color space                              : YUV
Chroma subsampling                       : 4:2:0
Bit depth                                : 8 bits
Scan type                                : Progressive
Bits/(Pixel*Frame)                       : 0.164
Stream size                              : 1.14 GiB (80%)
Title                                    : potroks
Writing library                          : x264 core 146 r2538 121396c
Encoding settings                        : cabac=1 / ref=12 / deblock=1:-2:-2 / analyse=0x3:0x113 / me=umh / subme=11 / psy=1 / psy_rd=1.00:0.05 / mixed_ref=1 / me_range=48 / chroma_me=1 / trellis=2 / 8x8dct=1 / cqm=0 / deadzone=21,11 / fast_pskip=0 / chroma_qp_offset=-3 / threads=9 / lookahead_threads=2 / sliced_threads=0 / nr=0 / decimate=0 / interlaced=0 / bluray_compat=0 / constrained_intra=0 / bframes=13 / b_pyramid=2 / b_adapt=2 / b_bias=0 / direct=3 / weightb=1 / open_gop=0 / weightp=2 / keyint=250 / keyint_min=23 / scenecut=40 / intra_refresh=0 / rc_lookahead=60 / rc=2pass / mbtree=0 / bitrate=1757 / ratetol=1.0 / qcomp=0.70 / qpmin=0 / qpmax=69 / qpstep=4 / cplxblur=20.0 / qblur=0.5 / vbv_maxrate=14000 / vbv_bufsize=14000 / nal_hrd=none / filler=0 / ip_ratio=1.40 / pb_ratio=1.30 / aq=1:0.80
Language                                 : English
Default                                  : Yes
Forced                                   : No

Audio
ID                                       : 2
Format                                   : AC-3
Format/Info                              : Audio Coding 3
Mode extension                           : CM (complete main)
Codec ID                                 : A_AC3
Duration                                 : 1h 34mn
Bit rate mode                            : Constant
Bit rate                                 : 384 Kbps
Channel(s)                               : 6 channels
Channel positions                        : Front: L C R, Side: L R, LFE
Sampling rate                            : 48.0 KHz
Bit depth                                : 16 bits
Compression mode                         : Lossy
Stream size                              : 260 MiB (18%)
Title                                    : Dub | DD 5.1 @ 384 kbps - iTunes
Language                                 : Russian
Default                                  : Yes
Forced                                   : No

Text #1
ID                                       : 3
Format                                   : UTF-8
Codec ID                                 : S_TEXT/UTF8
Codec ID/Info                            : UTF-8 Plain Text
Language                                 : English
Default                                  : No
Forced                                   : No

Text #2
ID                                       : 4
Format                                   : UTF-8
Codec ID                                 : S_TEXT/UTF8
Codec ID/Info                            : UTF-8 Plain Text
Language                                 : French
Default                                  : No
Forced                                   : No

Menu
00:00:00.000                             : en:Chapter 01
00:07:52.958                             : en:Chapter 02
00:17:22.208                             : en:Chapter 03
00:24:11.916                             : en:Chapter 04
00:32:14.083                             : en:Chapter 05
00:37:32.458                             : en:Chapter 06
00:47:15.833                             : en:Chapter 07
00:55:10.000                             : en:Chapter 08
01:04:41.833                             : en:Chapter 09
01:12:13.500                             : en:Chapter 10
01:21:27.583                             : en:Chapter 11
01:28:42.000                             : en:Chapter 12

pb.wtf



Скачать Дама в очках и с ружьем в автомобиле через торрент http://i76.fastpic.ru/big/2015/1226/02/56e5b4d45bf41f7710a20592bec20802.png Скачать фильм Дама в очках и с ружьем в автомобиле через торрент бесплантно в хорошем качестве Описание: Она самая прекрасная, самая чувственная, самая импульсивная, самая упрямая, самая незадачливая девушка. Она хотела воплотить ... 10 10 5
Info! Золотая раздача, скачанное не засчитывается.
Торрент: Зарегистрирован [2015-12-26 06:09] · скачан: 184 раз
Статус: √ проверено
Размер: 1.42 GB
Как cкачать? Как скачать Дама в очках и с ружьем в автомобиле через торрент | qTorrent

28-11-2019 20:33  

Отключить всю рекламу на сайте

26-12-2015 07:08 Дама в очках и с ружьем в автомобиле Скачать торрент  

слабенький фильмpb.wtf



26-12-2015 07:59 Дама в очках и с ружьем в автомобиле Скачать торрент  

Норм.фильм 4 из 5.pb.wtf



    Дорогой пользователь! Огромная просьба, поблагодарите релизера, оцените раздачу и оставьте свои комментарий, если Вы скачали Дама в очках и с ружьем в автомобиле через торрент бесплатно! Внесите свою лепту в развитие PiratBit!
    Комментировать посты могут только пользователи прошедшие не сложную регистрацию
    Показать сообщения:    

    Дама в очках и с ружьем в автомобиле через торрент
    Скачать бесплатно Дама в очках и с ружьем в автомобиле
    Дама в очках и с ружьем в автомобиле скачать торрент
    Дама в очках и с ружьем в автомобиле смотреть онлайн
    Cкачать фильм Дама в очках и с ружьем в автомобиле бесплатно
    Дама в очках и с ружьем в автомобиле скачать торрент в хорошем качестве
    Дама в очках и с ружьем в автомобиле смотреть онлайн бесплатно в хорошем качестве


    Вы не можете начинать темы
    Вы не можете отвечать на сообщения
    Вы не можете редактировать свои сообщения
    Вы не можете удалять свои сообщения
    Вы не можете голосовать в опросах
    Вы не можете прикреплять файлы к сообщениям
    Вы можете скачивать файлы