Ссылка на приватное зеркало всего за 1$. Внимание количество ограничено!!!

iTunes

iTunes

iTunes

1

iTunes

iTunes

iTunes

iTunes

iTunes

30
pack

Новость дня

ВАЖНО

!!Акция!!

Alien_RageХит недели

RePack

Resident Evil 21

ИГРА 18+

pack

RePack

jed

!!Акция!!

Alien_Rage

RePack

fifa19

RePack

Assassins Creed: Odyssey

RePack

NEED FOR SPEED™ PAYBACK

4 сезон

9 сезон

Бесстыжие 9 сезон

Все сериалы

все сериалы на PB.wtf

RePack

FAR CRY 5
  

Иерей-сан. Исповедь самурая (Егор Баранов) [2015, боевик, драма, WEB DLRip] [iTunes] pb.wtf

Иерей-сан. Исповедь самурая через торрент pb.wtf

Размер: 1.46 GB | Добавлен: 4 года 4 мес. назад | Торрент скачан:1198 раз
Скачать  

26-12-2015 08:39 Иерей-сан. Исповедь самурая Скачать торрент  

Иерей-сан. Исповедь самурая
«Воин определяется не силой, а духом»

Год выпуска » 2015
Страна » Россия
Жанр » Боевик, драма
Продолжительность » 01:41:52
Перевод » Оригинал • iTunes
Субтитры » Нет

В ролях
» Кэри-Хироюки Тагава, Пётр Фёдоров, Иван Охлобыстин, Игорь Жижикин, Петр Мамонов, Дарья Екамасова, Любовь Толкалина, Людмила Чурсина, Надежда Маркина, Алина Бабак

Режиссёр
» Егор Баранов
ОПИСАНИЕ:
» Главный герой — Такуро Накамура, в крещении отец Николай — священник японской православной церкви, в прошлом профессиональный спортсмен, а в настоящем — родной брат главы одного из влиятельных кланов якудза. Однажды он не смог пройти мимо насилия и защитил обычную девушку, вступив в схватку с людьми из враждебной брату группировки. Война кланов якудза неизбежна. Став заложником криминальных «разборок», священник подвергается смертельной опасности и его отправляют служить в российское село Глубокое, раздираемое внутренними конфликтами. Это место крайне интересно Андрею Нелюбину для земельных махинаций, и он готов пойти на все, чтобы жители покинули родные земли. Отец Николай объединяет сельчан вокруг полуразрушенной церкви. Восстанавливая храм, они возродили мир между собой и приняли вызов. Началась уже совсем другая война…
• Качество » WEB DLRip
• Формат » AVI
• Видео кодек » XviD
• Аудио кодек » AC3
• Видео » 1660 Кбит/сек, 720x304, 23.976 fps
• Аудио » Русский (AC3, 384 kb/s, 6 каналов, 48 Кгц)


Общее
Полное имя : E:\7aMuRa1.2015.O.WEB-DLRip.avi
Формат : AVI
Формат/Информация : Audio Video Interleave
Размер файла : 1,46 Гбайт
Продолжительность : 1 ч. 41 м.
Общий поток : 2053 Кбит/сек
Программа кодирования : VirtualDubMod 1.5.10.3 | www.virtualdub-fr.org || (build 2550/release)
Библиотека кодирования : VirtualDubMod build 2550/release

Видео
Идентификатор : 0
Формат : MPEG-4 Visual
Профиль формата : Advanced Simple@L5
Параметр BVOP формата : 2
Параметр QPel формата : Нет
Параметр GMC формата : Без точки перехода
Параметр матрицы формата : Default (MPEG)
Идентификатор кодека : XVID
Идентификатор кодека/Подсказка : XviD
Продолжительность : 1 ч. 41 м.
Битрейт : 1660 Кбит/сек
Ширина : 720 пикселей
Высота : 304 пикселя
Соотношение сторон : 2,35:1
Частота кадров : 24,000 кадра/сек
Цветовое пространство : YUV
Субдискретизация насыщенности : 4:2:0
Битовая глубина : 8 бит
Тип развёртки : Прогрессивная
Метод сжатия : С потерями
Бит/(Пиксели*Кадры) : 0.316
Размер потока : 1,18 Гбайт (81%)
Библиотека кодирования : XviD 1.2.1 (UTC 2008-12-04)

Аудио
Идентификатор : 1
Формат : AC-3
Формат/Информация : Audio Coding 3
Расширение режима : CM (complete main)
Параметр Endianness формата : Big
Идентификатор кодека : 2000
Продолжительность : 1 ч. 41 м.
Вид битрейта : Постоянный
Битрейт : 384 Кбит/сек
Каналы : 6 каналов
Расположение каналов : Front: L C R, Side: L R, LFE
Частота : 48,0 КГц
Битовая глубина : 16 бит
Метод сжатия : С потерями
Размер потока : 280 Мбайт (19%)
Выравнивание : Разделение по промежуткам
Продолжительность промежутка : 42 мс. (1,00 видеокадр)
Время предзагрузки промежутка : 500 мс.
скриншот   скриншот   скриншот  
pb.wtf



Скачать Иерей-сан. Исповедь самурая через торрент http://i74.fastpic.ru/big/2015/1218/b5/c39d072d168dbcde95d1a17f670689b5.gif Скачать фильм Иерей-сан. Исповедь самурая через торрент бесплантно в хорошем качестве ОПИСАНИЕ: » Главный герой — Такуро Накамура, в крещении отец Николай — священник японской православной церкви, в прошлом ... 8.8 10 36
Info! Золотая раздача, скачанное не засчитывается.
Торрент: Зарегистрирован [2015-12-26 08:39] · скачан: 1 198 раз
Статус: √ проверено
Размер: 1.46 GB
Как cкачать? Как скачать Иерей-сан. Исповедь самурая через торрент | qTorrent

% Раздел Тема Автор DL S | L
Наши фильмы (HD, WEB-DL 720p, 1080p) [ 5.23 GB ] Иерей-сан. Исповедь самурая [2015 BDRip 720p] smaster Скачать
1 | 0
Наши новые фильмы 2015 [ 1.46 GB ] Иерей-сан. Исповедь самурая [2015 Россия BDRip-AVC от sokol_ok] sokol_ok Скачать
2 | 0
Наши фильмы (HD, WEB-DL 720p, 1080p) [ 9.94 GB ] Иерей-сан. Исповедь самурая [2015 BDRip 1080p / ] Ворон Скачать
1 | 0
R.G. Resident & PiratVoice - Фильмы, Видео [ 1.46 GB ] Иерей-сан. Исповедь самурая [2015 WEB-DLRip-AVC Оригинал От R.G.Resident White Smoke Скачать
1 | 0
Наши фильмы (HD, WEB-DL 720p, 1080p) [ 3.19 GB ] Иерей-сан. Исповедь самурая [2015 WEB-DL 720p] $-DRON-$ Скачать
1 | 0
Наши фильмы (HD, WEB-DL 720p, 1080p) [ 3.47 GB ] Иерей-сан. Исповедь самурая [2015 WEB-DL 1080p Оригинал White Smoke Скачать
1 | 0


Последний раз редактировалось: $-DRON-$ (2015-12-26 12:36), всего редактировалось 1 раз

28-11-2019 20:33  

Отключить всю рекламу на сайте

26-12-2015 09:57 Иерей-сан. Исповедь самурая Скачать торрент  

Кто нибудь смотрел?pb.wtf



26-12-2015 10:41 Иерей-сан. Исповедь самурая Скачать торрент  

bober100, посмотрел сегодня утро, мне фильм понравилсяpb.wtf



26-12-2015 10:58 Иерей-сан. Исповедь самурая Скачать торрент  

Russian Mafia, благодарю надо заценитьpb.wtf



26-12-2015 11:37 Иерей-сан. Исповедь самурая Скачать торрент  

бредpb.wtf



26-12-2015 12:05 Иерей-сан. Исповедь самурая Скачать торрент  

Кстати по поводу Кэри-Хироюки Тагава.pb.wtf



26-12-2015 19:48 Иерей-сан. Исповедь самурая Скачать торрент  

Очень хороший фильмpb.wtf



27-12-2015 05:25 Иерей-сан. Исповедь самурая Скачать торрент  

Хороший фильм!pb.wtf



27-12-2015 17:08 Иерей-сан. Исповедь самурая Скачать торрент  

Фильм без смеха смотреть нельзя (ржал в голос)! Японец бывший мафиози батюшка в церкви в России! В России!!!pb.wtf



28-12-2015 09:09 Иерей-сан. Исповедь самурая Скачать торрент  

Спасибо за кино... pb.wtf



    Дорогой пользователь! Огромная просьба, поблагодарите релизера, оцените раздачу и оставьте свои комментарий, если Вы скачали Иерей-сан. Исповедь самурая через торрент бесплатно! Внесите свою лепту в развитие PiratBit!
    Комментировать посты могут только пользователи прошедшие не сложную регистрацию
    Показать сообщения:    

    Иерей-сан. Исповедь самурая через торрент
    Скачать бесплатно Иерей-сан. Исповедь самурая
    Иерей-сан. Исповедь самурая скачать торрент
    Иерей-сан. Исповедь самурая смотреть онлайн
    Cкачать фильм Иерей-сан. Исповедь самурая бесплатно
    Иерей-сан. Исповедь самурая скачать торрент в хорошем качестве
    Иерей-сан. Исповедь самурая смотреть онлайн бесплатно в хорошем качестве


    Вы не можете начинать темы
    Вы не можете отвечать на сообщения
    Вы не можете редактировать свои сообщения
    Вы не можете удалять свои сообщения
    Вы не можете голосовать в опросах
    Вы не можете прикреплять файлы к сообщениям
    Вы можете скачивать файлы