новый адрес пиратбит piratbit
Мега распродажа FORZA HORIZON 4 ULTIMATE+ВСЕ DLC+ОНЛАЙН всего за 499р. 349 руб. (супер цена). Внимание количество ограничено!!!

iTunes

1+1

iTunes

мы

iTunes

1

iTunes

Чернобыль

iTunes

Ральф против интернета

Лицензия

ПШазам

Лицензия

Игра престолов

Лицензия

30
pack

ВАЖНО

!!Акция!!

Alien_RageХит недели

RePack

Resident Evil 21

ИГРА 18+

pack

RePack

Metro:Exodus

!!Акция!!

Alien_Rage

RePack

fifa19

RePack

Assassins Creed: Odyssey

RePack

NEED FOR SPEED™ PAYBACK

3 сезон

9 сезон

Бесстыжие 9 сезон

Все сериалы

все сериалы на PB.wtf

RePack

FAR CRY 5
Ребята, катастрофически не хватает 1900р. для оплаты серверов за Октябрь (всвязи с блокировками трафик упал в 3 раза), 1-2р., выручайте.
  

Садко (Александр Птушко) [1952, СССР, сказка, приключения, DVDRip от AVP Studio] pb.wtf

Садко через торрент pb.wtf

Размер: 744 MB | Добавлен: 3 года 10 мес. назад | Торрент скачан:28 раз
Скачать  

26-12-2015 09:03 Садко Скачать торрент  

Садко
Страна: СССР
Производство: Мосфильм

Жанр: сказка, приключения
Год выпуска: 1952
Продолжительность: 01:24:41

Перевод: Не требуется
Cубтитры: нет
Оригинальная аудиодорожка: русский

Режиссер: Александр Птушко

В ролях:
Сергей Столяров, Алла Ларионова, Михаил Трояновский, Надир Малишевский, Борис Суровцев, Юрий Леонидов (II), Иван Переверзев, Николай Крючков, Сергей Мартинсон, Михаил Астангов, Лев Фенин, Степан Каюков, Ольга Викландт, Нинель Мышкова, Лидия Вертинская...
Полный список актёров

Описание:
По мотивам онежских былин. Купец Садко со своей дружиной отплывает на поиски "птицы счастья". Побывав в разных странах, оказавшись на морском дне, Садко возвращается в великий Новгород с твердым убеждением, что нет краше родной земли.

Источник: DVD9 R5
Качество видео: DVDRip
Формат видео: AVI

Видео: 640x480 (4:3), 25 fps, XviD ~ 1090 kbps avg, 0.142 bit/pixel
Аудио: 48 kHz, MP3 2.0, 128 kbps

Раздача от:
Общее
Полное имя : Sadko.1952.DVDRip-745_[New-team]_by_AVP_Studio.avi
Формат : AVI
Формат/Информация : Audio Video Interleave
Размер файла : 744 Мбайт
Продолжительность : 1 ч. 24 м.
Общий поток : 1228 Кбит/сек
Программа кодирования : VirtualDubMod 1.5.10.3 | www.virtualdub-fr.org || (build 2550/release)
Библиотека кодирования : VirtualDubMod build 2550/release

Видео
Идентификатор : 0
Формат : MPEG-4 Visual
Профиль формата : Advanced Simple@L5
Параметр BVOP формата : 1
Параметр QPel формата : Нет
Параметр GMC формата : Без точки перехода
Параметр матрицы формата : Выборочная
Идентификатор кодека : XVID
Идентификатор кодека/Подсказка : XviD
Продолжительность : 1 ч. 24 м.
Битрейт : 1090 Кбит/сек
Ширина : 640 пикселей
Высота : 480 пикселей
Соотношение сторон : 4:3
Частота кадров : 25,000 кадров/сек
Цветовое пространство : YUV
Субдискретизация насыщенности : 4:2:0
Битовая глубина : 8 бит
Тип развёртки : Прогрессивная
Метод сжатия : С потерями
Бит/(Пиксели*Кадры) : 0.142
Размер потока : 660 Мбайт (89%)
Библиотека кодирования : XviD 1.2.1 (UTC 2008-12-04)

Аудио
Идентификатор : 1
Формат : MPEG Audio
Версия формата : Version 1
Профиль формата : Layer 3
Идентификатор кодека : 55
Идентификатор кодека/Подсказка : MP3
Продолжительность : 1 ч. 24 м.
Вид битрейта : Постоянный
Битрейт : 128 Кбит/сек
Каналы : 2 канала
Частота : 48,0 КГц
Метод сжатия : С потерями
Размер потока : 77,5 Мбайт (10%)
Выравнивание : Соединение по промежуткам
Продолжительность промежутка : 40 мс. (1,00 видеокадр)
Время предзагрузки промежутка : 504 мс.
Библиотека кодирования : LAME3.99r
Настройки программы : -m s -V 4 -q 2 -lowpass 17 -b 128
pb.wtf



Скачать Садко через торрент http://i017.radikal.ru/1512/0c/f9afb2947654.png Скачать фильм Садко через торрент бесплантно в хорошем качестве Описание:По мотивам онежских былин. Купец Садко со своей дружиной отплывает на поиски "птицы счастья". Побывав в разных странах, оказавшись ... 5 10 1
Торрент: Зарегистрирован [2015-12-26 09:03] · скачан: 28 раз
Статус: √ проверено
Размер: 744 MB
Как cкачать? Как скачать Садко через торрент | qTorrent

% Раздел Тема Автор DL S | L
Наши Мультфильмы (HD, WEB-DL 720p, 1080p) [ 2.47 GB ] Садко [2018 мультфильм WEB-DL 720p] bober100 Скачать
1 | 0
Наши мультфильмы [ 1.46 GB ] Садко [2018 мультфильм WEB-DLRip] bober100 Скачать
3 | 0
Наши Мультфильмы (HD, WEB-DL 720p, 1080p) [ 2.73 GB ] Садко [2018 мультфильм WEB-DL 1080p] RUS ussr Скачать
2 | 0
Кино СССР [ 1.46 GB ] Садко [1952 СССР сказка DVDRip-AVC от AVP Studio] AVP Studio Скачать
1 | 0
Кино СССР [ 1.46 GB ] Садко [1952 СССР сказка DVDRip от AVP Studio] AVP Studio Скачать
1 | 0
Детские отечественные фильмы [ 1.46 GB ] Садко [1952 сказка DVDRip] VORLKED Скачать
1 | 0


>> Регистрируемся здесь <<






Отзывы и комментарии о схеме читаем и пишем здесь: ---> Отзывы и комментарии о схеме

Новые благодарочки в телеграм довольных пользователей:
скриншот   скриншот   скриншот   скриншот   скриншот
    Дорогой пользователь! Огромная просьба, поблагодарите релизера, оцените раздачу и оставьте свои комментарий, если Вы скачали Садко через торрент бесплатно! Внесите свою лепту в развитие PiratBit!
    Комментировать посты могут только пользователи прошедшие не сложную регистрацию
    Показать сообщения:    

    Садко через торрент
    Скачать бесплатно Садко
    Садко скачать торрент
    Садко смотреть онлайн
    Cкачать фильм Садко бесплатно
    Садко скачать торрент в хорошем качестве
    Садко смотреть онлайн бесплатно в хорошем качестве


    Вы не можете начинать темы
    Вы не можете отвечать на сообщения
    Вы не можете редактировать свои сообщения
    Вы не можете удалять свои сообщения
    Вы не можете голосовать в опросах
    Вы не можете прикреплять файлы к сообщениям
    Вы можете скачивать файлы