Ссылка на приватное зеркало нашего сайта всего за 1$. Внимание количество ограничено!!!

2 сезон

iTunes

1 сезон

1

2 сезон

2 сезон

iTunes

1 сезон

RePack

30

Ultimate

ВАЖНО

ИГРА 18+

pack

RePack

MK11
pack

Забери бонус

RePack

jed

!!Акция!!

Alien_Rage

RePack

fifa19

RePack

Assassins Creed: Odyssey

RePack

NEED FOR SPEED™ PAYBACK

4 сезон

9 сезон

Бесстыжие 9 сезон

Все сериалы

все сериалы на PB.wtf

RePack

FAR CRY 5
  

Второй шанс / Second Chance / Сезон: 1 / Серия 1-11 из 11 (Сара Пиа Андерсон / Sarah Pia Anderson, Майкл Куэста / Michael Cuesta, Адам Кэйн / Adam Kane) [2016, США, ужасы, фантастика, драма, WEB-DLRip-AVC] MVO [BaibaKo] pb.wtf

Второй шанс через торрент pb.wtf

Размер: 9.7 GB | Добавлен: 4 года 8 мес. назад | Торрент скачан:141 раз
Скачать  

27-12-2015 05:13 Второй шанс Скачать торрент  

Второй шанс / Second Chance
«Смерть дала ему второй шанс на жизнь»


  • Год выпуска: 2016
  • Страна: США
  • Жанр: ужасы, фантастика, драма
  • Продолжительность: 00:46:11
  • Перевод: Профессиональный многоголосый закадровый [BaibaKo]

  • Режиссер: Сара Пиа Андерсон / Sarah Pia Anderson, Майкл Куэста / Michael Cuesta, Адам Кэйн / Adam Kane
  • В ролях:

    Роберт Казински (Ray Pritchard), Адхир Кальян (Otto Goodwin), Дилшад Вадсариа (Mary Goodwin), Тим ДиКей (Duval Pritchard), Сиэра Браво (Gracie), Ванесса Ленгиз (Alexa), Кармен Мур (Special Agent in Charge Sue Adair), Адан Канто (Connor Graff), Фрэнсис З. МакКарти (George), Jesse Irving (Garrett), Крис Коуп (35 Year Old Pritchard), Филип Бейкер Холл (Ray Pritchard)


  • Когда 75-летнего шерифа убивают, он обретает шанс на новую жизнь. Учёные возвращают его в мир живых - он становится своеобразной версией Франкенштейна, получившей сверхсилу и вернувшей молодость. Теперь главному герою этой истории предстоит разобраться в том, по какой причине и кто именно его убил.
  • Рейтинг:



  • Качество: WEB-DLRip-AVC
  • Формат: :MPEG-4
  • Видео кодек: AVC
  • Аудио кодек: AC3
  • Видео: 2074 Кбит/сек, 1024*576 (16:9), в 23,976 кадра/сек, AVC
  • Аудио №1: русский 384 Кбит/сек, 48,0 КГц, 16 бит, 6 каналов, AC-3 | [BaibaKo]|
  • Аудио №2: английский 384 Кбит/сек, 48,0 КГц, 16 бит, 6 каналов, AC-3
  • Релиз от: GEKADOL

    Код:

    Внимание! Раздача ведётся путём добавления новых серий; при каждом добавлении создаётся новый торрент. Чтобы начать докачку новой серии, пользователям необходимо сделать следующее:
    (1) остановить скачивание,
    (2) удалить старый торрент у себя из клиента (старые серии удалять не надо),
    (3) скачать новый торрент и запустить его у себя в клиенте вместо старого, при этом указать клиенту путь в старую папку куда и должно происходить скачивание новых серий.
    Ваш клиент при этом должен произвести хеширование (проверку) старой папки (если не производит сам - помогите ему сделать это), и будет докачивать только те серии которых у вас ещё нет. Старые серии при этом не удаляются, а продолжают раздаваться!
    Eсли вы уже удалили старые серии, то предотвратить повторную закачку старых серий можно, отжав галочку в соответсвующих местах при запуске нового торрента. По возможности, желательно не удалять старые серии как можно дольше чтобы релизёр не столько продолжал раздавать старые серии, а смог сконцентрироваться на новых.


    Код:

    Общее
    Полное имя                               : H:\Второй шанс\Second.Chance.s01e01.WEB-DLRip-AVC.Rus.Eng.BaibaKo.tv.mp4
    Формат                                   : MPEG-4
    Профиль формата                          : Base Media
    Идентификатор кодека                     : isom
    Размер файла                             : 928 Мбайт
    Продолжительность                        : 45 м.
    Общий поток                              : 2847 Кбит/сек
    Программа кодирования                    : XviD4PSP 7.0.196
    encoding_info                            : MATROSKA / WEBM > MP4 / H264 > X264 CBR 2200kbps HQ / AC3 > AC3 CBR 384kbps / AC3 > AC3 CBR 384kbps

    Видео
    Идентификатор                            : 1
    Формат                                   : AVC
    Формат/Информация                        : Advanced Video Codec
    Профиль формата                          : High@L3.1
    Параметр CABAC формата                   : Да
    Параметр ReFrames формата                : 4 кадра
    Идентификатор кодека                     : avc1
    Идентификатор кодека/Информация          : Advanced Video Coding
    Продолжительность                        : 45 м.
    Битрейт                                  : 2074 Кбит/сек
    Номинальный битрейт                      : 2200 Кбит/сек
    Ширина                                   : 1024 пикселя
    Высота                                   : 576 пикселей
    Соотношение сторон                       : 16:9
    Режим частоты кадров                     : Постоянный
    Частота кадров                           : 23,976 кадра/сек
    Цветовое пространство                    : YUV
    Субдискретизация насыщенности            : 4:2:0
    Битовая глубина                          : 8 бит
    Тип развёртки                            : Прогрессивная
    Бит/(Пиксели*Кадры)                      : 0.147
    Размер потока                            : 676 Мбайт (73%)
    Библиотека кодирования                   : x264 core 148 r2638M 7599210
    Настройки программы                      : cabac=1 / ref=3 / deblock=1:-1:-1 / analyse=0x3:0x133 / me=hex / subme=7 / psy=1 / psy_rd=1.00:0.20 / mixed_ref=1 / me_range=16 / chroma_me=1 / trellis=1 / 8x8dct=1 / cqm=0 / deadzone=21,11 / fast_pskip=1 / chroma_qp_offset=-3 / threads=5 / lookahead_threads=1 / sliced_threads=0 / nr=0 / decimate=1 / interlaced=0 / bluray_compat=0 / constrained_intra=0 / bframes=3 / b_pyramid=2 / b_adapt=2 / b_bias=0 / direct=3 / weightb=1 / open_gop=0 / weightp=2 / keyint=230 / keyint_min=23 / scenecut=40 / intra_refresh=0 / rc_lookahead=40 / rc=cbr / mbtree=1 / bitrate=2200 / ratetol=1.0 / qcomp=0.60 / qpmin=0 / qpmax=69 / qpstep=4 / vbv_maxrate=2200 / vbv_bufsize=2200 / nal_hrd=none / filler=0 / ip_ratio=1.40 / aq=1:1.00
    Цветовой диапазон                        : Limited
    Основные цвета                           : BT.709
    Характеристики трансфера                 : BT.709
    Коэффициенты матрицы                     : BT.709

    Аудио #1
    Идентификатор                            : 2
    Формат                                   : AC-3
    Формат/Информация                        : Audio Coding 3
    Расширение режима                        : CM (complete main)
    Параметр Endianness формата              : Big
    Идентификатор кодека                     : ac-3
    Продолжительность                        : 45 м.
    Вид битрейта                             : Постоянный
    Битрейт                                  : 384 Кбит/сек
    Каналы                                   : 6 каналов
    Расположение каналов                     : Front: L C R, Side: L R, LFE
    Частота                                  : 48,0 КГц
    Битовая глубина                          : 16 бит
    Метод сжатия                             : С потерями
    Размер потока                            : 125 Мбайт (13%)
    Язык                                     : Russian

    Аудио #2
    Идентификатор                            : 3
    Формат                                   : AC-3
    Формат/Информация                        : Audio Coding 3
    Расширение режима                        : CM (complete main)
    Параметр Endianness формата              : Big
    Идентификатор кодека                     : ac-3
    Продолжительность                        : 45 м.
    Вид битрейта                             : Постоянный
    Битрейт                                  : 384 Кбит/сек
    Каналы                                   : 6 каналов
    Расположение каналов                     : Front: L C R, Side: L R, LFE
    Частота                                  : 48,0 КГц
    Битовая глубина                          : 16 бит
    Метод сжатия                             : С потерями
    Размер потока                            : 125 Мбайт (13%)
    Язык                                     : English




    Скриншоты:
    скриншот   скриншот   скриншот   скриншот   скриншот   скриншот   скриншот  
    скриншот  

    Раздача ведётся путём добавления новых серий. Добавлена 11 серия (27.03.2016).Просьба перекачать торрент файл.

    pb.wtf



  • Скачать Второй шанс через торрент http://pic1.kartinco.top/images/10/ps7bx.jpg Скачать фильм Второй шанс через торрент бесплантно в хорошем качестве qw.png Когда 75-летнего шерифа убивают, он обретает шанс на новую жизнь. Учёные возвращают его в мир живых - он становится своеобразной ... 9.8 10 22
    Info! Золотая раздача, скачанное не засчитывается.
    Торрент: Зарегистрирован [2016-03-27 02:01] · скачан: 141 раз
    Статус: √ проверено
    Размер: 9.7 GB
    Как cкачать? Как скачать Второй шанс через торрент | qTorrent

    % Раздел Тема Автор DL S | L
    Зарубежные сериалы [ 16.24 GB ] Второй шанс / Second Chance / Сезон: 1 / Серии: 1-11 из 11 [2016 WEB-DL 720p] MVO [NewStudio] bober100 Скачать
    1 | 0
    Зарубежные сериалы [ 5.76 GB ] Второй шанс / Second Chance / Сезон: 1 / Серии: 1-11 из 11 [2016 WEB-DLRip] MVO [NewStudio] bober100 Скачать
    1 | 0


    Последний раз редактировалось: GEKADOL (2016-03-27 02:01), всего редактировалось 10 раз(а)

    28-11-2019 20:33  

    Отключить всю рекламу на сайте

    23-01-2016 04:47 Второй шанс Скачать торрент  

    Заменена 1 серия!! pb.wtf



    09-02-2016 03:27 Второй шанс Скачать торрент  

    спасибо за свежачок! стремно, что бабища режиссирует - возможно соплей будет сверх меры))pb.wtf



    14-02-2016 01:56 Второй шанс Скачать торрент  

    да ниче так фильмец оказался. несмотря на бабищу-режиссера))) в четвертой серии все сюжетные линии по сути подошли к концу, осталась только ветка с "ракообразной" сестрой)) фиг знает из чего сценарий дальше лепить будут.
    зы. уже пятая серия "на просторах" появилась. ждем-с обновления раздачиpb.wtf



    18-02-2016 02:45 Второй шанс Скачать торрент  

    ждем сериюpb.wtf



    20-02-2016 02:38 Второй шанс Скачать торрент  

    на просторах инета серия уже пятые серии виситpb.wtf



    22-02-2016 02:22 Второй шанс Скачать торрент  

    IvanS66 писал(а):

    на просторах инета серия уже пятые серии висит

    На просторах то есть, а вот на байбаках ток сегодня появилась))pb.wtf



      Дорогой пользователь! Огромная просьба, поблагодарите релизера, оцените раздачу и оставьте свои комментарий, если Вы скачали Второй шанс через торрент бесплатно! Внесите свою лепту в развитие PiratBit!
      Комментировать посты могут только пользователи прошедшие не сложную регистрацию
      Показать сообщения:    

      Второй шанс через торрент
      Скачать бесплатно Второй шанс
      Второй шанс скачать торрент
      Второй шанс смотреть онлайн
      Cкачать фильм Второй шанс бесплатно
      Второй шанс скачать торрент в хорошем качестве
      Второй шанс смотреть онлайн бесплатно в хорошем качестве


      Вы не можете начинать темы
      Вы не можете отвечать на сообщения
      Вы не можете редактировать свои сообщения
      Вы не можете удалять свои сообщения
      Вы не можете голосовать в опросах
      Вы не можете прикреплять файлы к сообщениям
      Вы можете скачивать файлы