Ссылка на приватное зеркало всего за 1$. Внимание количество ограничено!!!

iTunes

iTunes

iTunes

1

iTunes

iTunes

iTunes

iTunes

iTunes

30
pack

$ от Little Big

ВАЖНО

!!Акция!!

Alien_RageХит недели

RePack

Resident Evil 21

ИГРА 18+

pack

RePack

jed

!!Акция!!

Alien_Rage

RePack

fifa19

RePack

Assassins Creed: Odyssey

RePack

NEED FOR SPEED™ PAYBACK

4 сезон

9 сезон

Бесстыжие 9 сезон

Все сериалы

все сериалы на PB.wtf

RePack

FAR CRY 5
  

Смертельная тоска / Anguish (Сонни Маллхи) [2015, ужасы, WEB-DL 720p, Любительский (одноголосый) [Хихикающий доктор] pb.wtf

Смертельная тоска через торрент pb.wtf

Размер: 2.76 GB | Добавлен: 4 года 6 мес. назад | Торрент скачан:85 раз
Скачать  

27-12-2015 11:34 Смертельная тоска Скачать торрент  

Смертельная тоска / Anguish
Год выпуска: 2015
Страна: США
Жанр: ужасы
Продолжительность: 01:31:32
Перевод: Любительский (одноголосый) [Хихикающий доктор]
Субтитры: английские,
Режиссер: Сонни Маллхи
В ролях:

Райан Симпкинс (Tess), Анника Маркс (Jessica), Карина Лог (Sarah), Клифф Чемберлен (Robert), Эмберли Гридли (Lucy), Райан О’Нан (Father Meyers), Полина Ольсцунски (Morgan), Ану Бхатт (Woman), Andrea Susan Bush (Orderly), Camara K. Colvin (Nurse), Джастин М. Константино (Receptionist), Anthony Corrado (Anthony)
Описание:
Девочка-подросток Тэсс долгие годы страдает психическим расстройством. Врачи ставят ей диагноз - расстройство личности. Ее мать Джессика решает переехать в новый дом с надеждой, что новое место и новые ощущения помогут дочери. Но череда странных событий заставляет её задуматься, что расстройство Тэсс этому виной, и ей стало хуже...
Мировая премьера: 21 июля 2015

Качество: WEB-DL 720p
Формат: MKV
Видео: AVC, 1280x532 (2.40:1), 3649 kbps, 23,976 fps, 0,224 bpp
Аудио №1: русский / MP3 / 2.0 / 44 kHz / 192 kbps / ||
Аудио №2: английский / AC3 / 5.1 / 48 kHz / 384 kbps / 16 bit

Код:

Общее
Уникальный идентификатор                 : 253228797468211755274584981682622340302 (0xBE8217A6617DFBBCB104A1CB7EB89CCE)
Полное имя                               : D:\download\Anguish.2015.720p.WEB-DL.mkv
Формат                                   : Matroska
Версия формата                           : Version 4 / Version 2
Размер файла                             : 2,76 Гбайт
Продолжительность                        : 1 ч. 31 м.
Общий поток                              : 4311 Кбит/сек
Дата кодирования                         : UTC 2015-12-27 08:28:04
Программа кодирования                    : mkvmerge v6.9.1 ('Blue Panther') 64bit built on Apr 18 2014 18:23:38
Библиотека кодирования                   : libebml v1.3.0 + libmatroska v1.4.1

Видео
Идентификатор                            : 1
Формат                                   : AVC
Формат/Информация                        : Advanced Video Codec
Профиль формата                          : Main@L4.1
Параметр CABAC формата                   : Да
Параметр ReFrames формата                : 8 кадров
Идентификатор кодека                     : V_MPEG4/ISO/AVC
Продолжительность                        : 1 ч. 31 м.
Битрейт                                  : 3649 Кбит/сек
Номинальный битрейт                      : 3900 Кбит/сек
Ширина                                   : 1280 пикселей
Высота                                   : 532 пикселя
Соотношение сторон                       : 2,40:1
Режим частоты кадров                     : Постоянный
Частота кадров                           : 23,976 кадра/сек
Цветовое пространство                    : YUV
Субдискретизация насыщенности            : 4:2:0
Битовая глубина                          : 8 бит
Тип развёртки                            : Прогрессивная
Бит/(Пиксели*Кадры)                      : 0.224
Размер потока                            : 2,33 Гбайт (85%)
Библиотека кодирования                   : x264 core 148 r2538
Настройки программы                      : cabac=1 / ref=8 / deblock=1:0:0 / analyse=0x1:0x131 / me=hex / subme=7 / psy=1 / psy_rd=1.00:0.00 / mixed_ref=0 / me_range=16 / chroma_me=1 / trellis=1 / 8x8dct=0 / cqm=0 / deadzone=21,11 / fast_pskip=1 / chroma_qp_offset=-2 / threads=12 / lookahead_threads=2 / sliced_threads=0 / nr=0 / decimate=1 / interlaced=0 / bluray_compat=0 / constrained_intra=0 / bframes=3 / b_pyramid=0 / b_adapt=1 / b_bias=0 / direct=3 / weightb=1 / open_gop=0 / weightp=2 / keyint=239 / keyint_min=23 / scenecut=40 / intra_refresh=0 / rc_lookahead=40 / rc=cbr / mbtree=1 / bitrate=3900 / ratetol=1.0 / qcomp=0.60 / qpmin=10 / qpmax=69 / qpstep=4 / vbv_maxrate=3900 / vbv_bufsize=24000 / nal_hrd=none / filler=0 / ip_ratio=1.40 / aq=3:1.00
Default                                  : Да
Forced                                   : Нет

Аудио #1
Идентификатор                            : 2
Формат                                   : MPEG Audio
Версия формата                           : Version 1
Профиль формата                          : Layer 3
Идентификатор кодека                     : A_MPEG/L3
Идентификатор кодека/Подсказка           : MP3
Продолжительность                        : 1 ч. 31 м.
Вид битрейта                             : Постоянный
Битрейт                                  : 192 Кбит/сек
Каналы                                   : 2 канала
Частота                                  : 44,1 КГц
Метод сжатия                             : С потерями
Размер потока                            : 126 Мбайт (4%)
Заголовок                                : Xixidoktor
Язык                                     : Russian
Default                                  : Да
Forced                                   : Нет

Аудио #2
Идентификатор                            : 3
Формат                                   : AC-3
Формат/Информация                        : Audio Coding 3
Расширение режима                        : CM (complete main)
Параметр Endianness формата              : Big
Идентификатор кодека                     : A_AC3
Продолжительность                        : 1 ч. 31 м.
Вид битрейта                             : Постоянный
Битрейт                                  : 384 Кбит/сек
Каналы                                   : 6 каналов
Расположение каналов                     : Front: L C R, Side: L R, LFE
Частота                                  : 48,0 КГц
Битовая глубина                          : 16 бит
Метод сжатия                             : С потерями
Размер потока                            : 251 Мбайт (9%)
Заголовок                                : original
Язык                                     : English
Default                                  : Нет
Forced                                   : Нет

Текст
Идентификатор                            : 4
Формат                                   : UTF-8
Идентификатор кодека                     : S_TEXT/UTF8
Идентификатор кодека/Информация          : UTF-8 Plain Text
Язык                                     : English
Default                                  : Нет
Forced                                   : Нет



Присутствует рекламаpb.wtf



Скачать Смертельная тоска через торрент http://pic1.kartinco.top/images/10/ejpqs.jpg Скачать фильм Смертельная тоска через торрент бесплантно в хорошем качестве Описание: Девочка-подросток Тэсс долгие годы страдает психическим расстройством. Врачи ставят ей диагноз - расстройство личности. Ее мать ... 10 10 5
Торрент: Зарегистрирован [2015-12-27 11:34] · скачан: 85 раз
Статус: T временная
Размер: 2.76 GB
Как cкачать? Как скачать Смертельная тоска через торрент | qTorrent

28-11-2019 20:33  

Отключить всю рекламу на сайте

    Дорогой пользователь! Огромная просьба, поблагодарите релизера, оцените раздачу и оставьте свои комментарий, если Вы скачали Смертельная тоска через торрент бесплатно! Внесите свою лепту в развитие PiratBit!
    Комментировать посты могут только пользователи прошедшие не сложную регистрацию
    Показать сообщения:    

    Смертельная тоска через торрент
    Скачать бесплатно Смертельная тоска
    Смертельная тоска скачать торрент
    Смертельная тоска смотреть онлайн
    Cкачать фильм Смертельная тоска бесплатно
    Смертельная тоска скачать торрент в хорошем качестве
    Смертельная тоска смотреть онлайн бесплатно в хорошем качестве


    Вы не можете начинать темы
    Вы не можете отвечать на сообщения
    Вы не можете редактировать свои сообщения
    Вы не можете удалять свои сообщения
    Вы не можете голосовать в опросах
    Вы не можете прикреплять файлы к сообщениям
    Вы можете скачивать файлы