Ссылка на приватное зеркало всего за 1$. Внимание количество ограничено!!!

OK

1+1

iTunes

мы

OK

1

WEB-DLRip

Джокер

Пифагор

Ведьмак / The Witcher сериал

Лицензия

ПШазам

ОК

Оно 2

iTunes

30
pack

Вам бонус

ВАЖНО

!!Акция!!

Alien_RageХит недели

RePack

Resident Evil 21

ИГРА 18+

pack

RePack

jed

!!Акция!!

Alien_Rage

RePack

fifa19

RePack

Assassins Creed: Odyssey

RePack

NEED FOR SPEED™ PAYBACK

4 сезон

9 сезон

Бесстыжие 9 сезон

Все сериалы

все сериалы на PB.wtf

RePack

FAR CRY 5
  

Убойный огонек / Mi gran noche [2015 г., комедия, WEB-DLRip] iTunes pb.wtf

Убойный огонек через торрент pb.wtf

Размер: 1.46 GB | Добавлен: 4 года назад | Торрент скачан:355 раз
Скачать  

27-12-2015 22:49 Убойный огонек Скачать торрент  

Убойный огонек / Mi gran noche
Год выпуска » 2015
Страна » Испания / Canal Plus, Enrique Cerezo Producciones Cinematograficas S.A., Telefonica Studios, TVE
Жанр » Комедия
Продолжительность » 01:37:02
Перевод » Профессиональное (многоголосное) [iTunes]
Субтитры » Нет

В ролях
» Рафаэль, Марио Касас, Пепон Ниэто, Бланка Суарес, Уго Сильва, Кармен Мачи, Луис Кальехо, Карлос Аресес, Энрике Вильен, Сантьяго Сегура

Режиссёр
» Алекс де ла Иглесиа
ОПИСАНИЕ:
» Телезапись зрелищного «новогоднего огонька» оборачивается абсолютным сумасшествием, когда череда несчастных случаев обрушивается на съемочную площадку один за другим. Съемочный кран только что разгромил столик с массовкой… включая массовку. Одержимая фанатка шантажирует Адана, сексапильную сверх всякой меры поп-звезду. За легендарным певцом Альфонсо открывает вооруженную охоту сумасшедший автор песен. Один из актеров массовки, Хосе, пытает свое счастье с прекрасной Паломой, однако всех ее мужчин обычно преследуют беды. Тем временем снаружи разъяренная толпа требует ареста бесчестного продюсера шоу. В любой момент все окончательно выйдет из под контроля. Как всегда, «праздник» подкрался незаметно!
• Качество » WEB-DLRip
• Формат » AVI
• Видео кодек » XviD
• Аудио кодек » AC3
• Видео » MPEG-4 Visual,1762 kb/s, 720x304,24,000 кадра/сек
• Аудио » Русский (AC3, 384 kb/s (6 ch) /16 bit )


Общее
Полное имя : E:\Y60ynii.0g0nek.2015.WEB-DLRip.avi
Формат : AVI
Формат/Информация : Audio Video Interleave
Размер файла : 1,46 Гбайт
Продолжительность : 1 ч. 37 м.
Общий поток : 2155 Кбит/сек
Программа кодирования : VirtualDubMod 1.5.10.3 | www.virtualdub-fr.org || (build 2550/release)
Библиотека кодирования : VirtualDubMod build 2550/release

Видео
Идентификатор : 0
Формат : MPEG-4 Visual
Профиль формата : Advanced Simple@L5
Параметр BVOP формата : 2
Параметр QPel формата : Нет
Параметр GMC формата : Без точки перехода
Параметр матрицы формата : Default (MPEG)
Идентификатор кодека : XVID
Идентификатор кодека/Подсказка : XviD
Продолжительность : 1 ч. 37 м.
Битрейт : 1762 Кбит/сек
Ширина : 720 пикселей
Высота : 304 пикселя
Соотношение сторон : 2,35:1
Частота кадров : 24,000 кадра/сек
Цветовое пространство : YUV
Субдискретизация насыщенности : 4:2:0
Битовая глубина : 8 бит
Тип развёртки : Прогрессивная
Метод сжатия : С потерями
Бит/(Пиксели*Кадры) : 0.335
Размер потока : 1,19 Гбайт (82%)
Библиотека кодирования : XviD 1.2.1 (UTC 2008-12-04)

Аудио
Идентификатор : 1
Формат : AC-3
Формат/Информация : Audio Coding 3
Расширение режима : CM (complete main)
Параметр Endianness формата : Big
Идентификатор кодека : 2000
Продолжительность : 1 ч. 37 м.
Вид битрейта : Постоянный
Битрейт : 384 Кбит/сек
Каналы : 6 каналов
Расположение каналов : Front: L C R, Side: L R, LFE
Частота : 48,0 КГц
Битовая глубина : 16 бит
Метод сжатия : С потерями
Размер потока : 267 Мбайт (18%)
Выравнивание : Разделение по промежуткам
Продолжительность промежутка : 42 мс. (1,00 видеокадр)
Время предзагрузки промежутка : 500 мс.
скриншот   скриншот   скриншот  
pb.wtf



Скачать Убойный огонек через торрент http://pic1.kartinco.top/images/10/fasia.jpg Скачать фильм Убойный огонек через торрент бесплантно в хорошем качестве ОПИСАНИЕ: » Телезапись зрелищного «новогоднего огонька» оборачивается абсолютным сумасшествием, когда череда несчастных случаев ... 9.9 10 18
Info! Золотая раздача, скачанное не засчитывается.
Торрент: Зарегистрирован [2015-12-27 22:49] · скачан: 355 раз
Статус: √ проверено
Размер: 1.46 GB
Как cкачать? Как скачать Убойный огонек через торрент | qTorrent

% Раздел Тема Автор DL S | L
R.G. Resident & PiratVoice - Фильмы, Видео [ 1.46 GB ] Убойный огонек / Mi gran noche [2015 WEB-DLRip-AVC многоголосый R.G.Resident schultz Скачать
1 | 0
Фильмы (WEB-DL 720p, 1080p) [ 3.38 GB ] Убойный огонек / Mi gran noche [2015 WEB-DL 1080p многоголосый schultz Скачать
1 | 0
Фильмы (WEB-DL 720p, 1080p) [ 3 GB ] Убойный огонек / Mi gran noche [2015 WEB-DL 720p ] $-DRON-$ Скачать
1 | 0

28-11-2019 20:33  

Отключить всю рекламу на сайте

27-12-2015 22:57 Убойный огонек Скачать торрент  

Как насчёт рекламы?СПС!pb.wtf



28-12-2015 04:53 Убойный огонек Скачать торрент  

iTunes Рекламы нетpb.wtf



28-12-2015 04:57 Убойный огонек Скачать торрент  

White Smoke писал(а):

iTunes Рекламы нет

Незнал пордон!pb.wtf



    Дорогой пользователь! Огромная просьба, поблагодарите релизера, оцените раздачу и оставьте свои комментарий, если Вы скачали Убойный огонек через торрент бесплатно! Внесите свою лепту в развитие PiratBit!
    Комментировать посты могут только пользователи прошедшие не сложную регистрацию
    Показать сообщения:    

    Убойный огонек через торрент
    Скачать бесплатно Убойный огонек
    Убойный огонек скачать торрент
    Убойный огонек смотреть онлайн
    Cкачать фильм Убойный огонек бесплатно
    Убойный огонек скачать торрент в хорошем качестве
    Убойный огонек смотреть онлайн бесплатно в хорошем качестве


    Вы не можете начинать темы
    Вы не можете отвечать на сообщения
    Вы не можете редактировать свои сообщения
    Вы не можете удалять свои сообщения
    Вы не можете голосовать в опросах
    Вы не можете прикреплять файлы к сообщениям
    Вы можете скачивать файлы