MEGA SALE -50% FORZA HORIZON 4 ULTIMATE+ВСЕ DLC+ОНЛАЙН всего за 599р. 299 руб. (супер цена). Внимание количество ограничено!!!

iTunes

1+1

iTunes

мы

iTunes

1

iTunes

Чернобыль

iTunes

Ральф против интернета

Лицензия

ПШазам

Лицензия

Игра престолов

Лицензия

30
pack

ВАЖНО

!!Акция!!

Alien_RageХит недели

RePack

Resident Evil 21

ИГРА 18+

pack

RePack

Metro:Exodus

!!Акция!!

Alien_Rage

RePack

fifa19

RePack

Assassins Creed: Odyssey

RePack

NEED FOR SPEED™ PAYBACK

3 сезон

9 сезон

Бесстыжие 9 сезон

Все сериалы

все сериалы на PB.wtf

RePack

FAR CRY 5
Ребята, катастрофически не хватает 7730р. для оплаты серверов за ИЮЛЬ (всвязи с блокировками трафик упал в 3 раза), 1-2р., выручайте.
  

Крудсы: Начало / Семейка Крудс. Начало / Dawn of the Croods / Сезон: 1 / Серии 1-13 из 13 (Алекс Альмагер / Alex Almaguer, Кристал Чесни / Crystal Chesney, Брайан Хэтфилд / Brian Hatfield) [2015 , США, мультфильм, семейный, WEBRip-AVC] MVO [NewStudio pb.wtf

Крудсы: Начало через торрент pb.wtf

Качают: 1 [ 0 KB/s ]
Размер: 5.9 GB | Добавлен: 3 года 7 мес. назад | Торрент скачан:72 раза
Скачать  

28-12-2015 00:59 Крудсы: Начало Скачать торрент  

Крудсы: Начало / Семейка Крудс. Начало / Dawn of the Croods


  • Год выпуска: 2015
  • Страна: США
  • Жанр: мультфильм, семейный
  • Продолжительность: 00:23:15 (Серия)
  • Перевод: Профессиональный многоголосый закадровый

  • Режиссер: Алекс Альмагер / Alex Almaguer, Кристал Чесни / Crystal Chesney, Брайан Хэтфилд / Brian Hatfield
  • В ролях:

    Дэн Милано (Grug), Кри Саммер (Ugga), Стефани Николь Лемелин (Eep), А.Дж. Локасцио (Thunk), Лорейн Ньюмен (Gran)


  • Мультсериал о небезызвестной семейке Крудс. Землетрясение уничтожило дом доисторической семьи, и теперь им придётся искать другое пристанище. А вокруг новый и опасный мир! Только вместе они смогут выжить и достичь своей цели…
  • Рейтинг:



  • Качество: WEBRip-AVC
  • Формат: :MPEG-4
  • Видео кодек: AVC
  • Аудио кодек: AC3
  • Видео: 1024x576 (16:9), 2025 kbps, 23,976 fps, 0,143 bpp
  • Аудио №1: русский / 5.1 / 48 kHz / 384 kbps / 16 bit |[NewStudio]|
  • Аудио №2: английский / 5.1 / 48 kHz / 384 kbps / 16 bit
  • Релиз от: GEKADOL

    Код:

    Внимание! Раздача ведётся путём добавления новых серий; при каждом добавлении создаётся новый торрент. Чтобы начать докачку новой серии, пользователям необходимо сделать следующее:
    (1) остановить скачивание,
    (2) удалить старый торрент у себя из клиента (старые серии удалять не надо),
    (3) скачать новый торрент и запустить его у себя в клиенте вместо старого, при этом указать клиенту путь в старую папку куда и должно происходить скачивание новых серий.
    Ваш клиент при этом должен произвести хеширование (проверку) старой папки (если не производит сам - помогите ему сделать это), и будет докачивать только те серии которых у вас ещё нет. Старые серии при этом не удаляются, а продолжают раздаваться!
    Eсли вы уже удалили старые серии, то предотвратить повторную закачку старых серий можно, отжав галочку в соответствующих местах при запуске нового торрента. По возможности, желательно не удалять старые серии как можно дольше чтобы релизёр не столько продолжал раздавать старые серии, а смог сконцентрироваться на новых.


    Код:

    General
    Complete name                            : H:\Крудсы Начало\Dawn.of.the.Croods.s01e01.WEBRip-AVC.NewStudio.TV.mp4
    Format                                   : MPEG-4
    Format profile                           : Base Media
    Codec ID                                 : isom
    File size                                : 465 MiB
    Duration                                 : 23mn 15s
    Overall bit rate                         : 2 799 Kbps
    Writing application                      : XviD4PSP 7.0.196
    iTunMOVI                                 : <?xml version="1.0" encoding="UTF-8"?> / <!DOCTYPE plist PUBLIC "-//Apple//DTD PLIST 1.0//EN" "http://www.apple.com/DTDs/PropertyList-1.0.dtd"> / <plist version="1.0"> / <dict> /     <key>encoding_info</key> /     <array> /         <dict> /             <key>name</key> /             <string>MATROSKA</string> /         </dict> /         <dict> /             <key>name</key> /             <string><![CDATA[WEBM > MP4 / H264 > X264 CBR 2200kbps HQ / AC3 > AC3 CBR 384kbps / AC3 > AC3 CBR 384kbps]]></string> /         </dict> /     </array> / </dict> / </plist>

    Video
    ID                                       : 1
    Format                                   : AVC
    Format/Info                              : Advanced Video Codec
    Format profile                           : High@L3.1
    Format settings, CABAC                   : Yes
    Format settings, ReFrames                : 4 frames
    Codec ID                                 : avc1
    Codec ID/Info                            : Advanced Video Coding
    Duration                                 : 23mn 15s
    Bit rate                                 : 2 026 Kbps
    Nominal bit rate                         : 2 200 Kbps
    Width                                    : 1 024 pixels
    Height                                   : 576 pixels
    Display aspect ratio                     : 16:9
    Frame rate mode                          : Constant
    Frame rate                               : 23.976 fps
    Color space                              : YUV
    Chroma subsampling                       : 4:2:0
    Bit depth                                : 8 bits
    Scan type                                : Progressive
    Bits/(Pixel*Frame)                       : 0.143
    Stream size                              : 337 MiB (72%)
    Writing library                          : x264 core 148 r2638M 7599210
    Encoding settings                        : cabac=1 / ref=3 / deblock=1:-1:-1 / analyse=0x3:0x133 / me=hex / subme=7 / psy=1 / psy_rd=1.00:0.20 / mixed_ref=1 / me_range=16 / chroma_me=1 / trellis=1 / 8x8dct=1 / cqm=0 / deadzone=21,11 / fast_pskip=1 / chroma_qp_offset=-3 / threads=5 / lookahead_threads=1 / sliced_threads=0 / nr=0 / decimate=1 / interlaced=0 / bluray_compat=0 / constrained_intra=0 / bframes=3 / b_pyramid=2 / b_adapt=2 / b_bias=0 / direct=3 / weightb=1 / open_gop=0 / weightp=2 / keyint=230 / keyint_min=23 / scenecut=40 / intra_refresh=0 / rc_lookahead=40 / rc=cbr / mbtree=1 / bitrate=2200 / ratetol=1.0 / qcomp=0.60 / qpmin=0 / qpmax=69 / qpstep=4 / vbv_maxrate=2200 / vbv_bufsize=2200 / nal_hrd=none / filler=0 / ip_ratio=1.40 / aq=1:1.00
    Language                                 : English
    Color primaries                          : BT.709-5, BT.1361, IEC 61966-2-4, SMPTE RP177
    Transfer characteristics                 : BT.709-5, BT.1361
    Matrix coefficients                      : BT.709-5, BT.1361, IEC 61966-2-4 709, SMPTE RP177

    Audio #1
    ID                                       : 2
    Format                                   : AC-3
    Format/Info                              : Audio Coding 3
    Mode extension                           : CM (complete main)
    Codec ID                                 : ac-3
    Duration                                 : 23mn 15s
    Bit rate mode                            : Constant
    Bit rate                                 : 384 Kbps
    Channel(s)                               : 6 channels
    Channel positions                        : Front: L C R, Side: L R, LFE
    Sampling rate                            : 48.0 KHz
    Bit depth                                : 16 bits
    Compression mode                         : Lossy
    Stream size                              : 63.9 MiB (14%)
    Title                                    : NewStudio.TV
    Language                                 : Russian

    Audio #2
    ID                                       : 3
    Format                                   : AC-3
    Format/Info                              : Audio Coding 3
    Mode extension                           : CM (complete main)
    Codec ID                                 : ac-3
    Duration                                 : 23mn 15s
    Bit rate mode                            : Constant
    Bit rate                                 : 384 Kbps
    Channel(s)                               : 6 channels
    Channel positions                        : Front: L C R, Side: L R, LFE
    Sampling rate                            : 48.0 KHz
    Bit depth                                : 16 bits
    Compression mode                         : Lossy
    Stream size                              : 63.9 MiB (14%)
    Language                                 : English






    Скриншоты:
    скриншот   скриншот   скриншот   скриншот   скриншот   скриншот  
    скриншот  

    Раздача ведётся путём добавления новых серий. Добавлена 13 серия (10.01.2016).Просьба перекачать торрент файл.

    pb.wtf



  • Скачать Крудсы: Начало через торрент http://i76.fastpic.ru/big/2015/1228/c6/ba390f623c6b4cdf70512b81531674c6.jpeg Скачать фильм Крудсы: Начало через торрент бесплантно в хорошем качестве qw.png Мультсериал о небезызвестной семейке Крудс. Землетрясение уничтожило дом доисторической семьи, и теперь им придётся искать другое ... 9.5 10 21
    Info! Золотая раздача, скачанное не засчитывается.
    Торрент: Зарегистрирован [2016-01-10 01:56] · скачан: 72 раз
    Статус: √ проверено
    Размер: 5.9 GB
    Как cкачать? Как скачать Крудсы: Начало через торрент | qTorrent

    % Раздел Тема Автор DL S | L
    Мультсериалы [ 4.56 GB ] Крудсы: Начало / Семейка Крудс. Начало / Dawn of the Croods / Сезон: 2 / Серии 1-13 из 13 [2016 мультфильм WEBRip 720p] MVO [NewStudio] GEKADOL Скачать
    1 | 0


    Последний раз редактировалось: GEKADOL (2016-01-10 01:56), всего редактировалось 14 раз(а)


    >> Регистрируемся здесь <<






    Отзывы и комментарии о схеме читаем и пишем здесь: ---> Отзывы и комментарии о схеме

    Новые благодарочки в телеграм довольных пользователей:
    скриншот   скриншот   скриншот   скриншот   скриншот

    28-12-2015 04:04 Крудсы: Начало Скачать торрент  

    Правильно ли я понимаю что озвучили их те кто озвучил Декстера а значит даже в древнем мире будет маньяк...для кого-тоpb.wtf



    28-12-2015 06:02 Крудсы: Начало Скачать торрент  

    Перед премьерой второй части решили раскрутить мультсериалом.pb.wtf



    31-12-2015 17:34 Крудсы: Начало Скачать торрент  

    С Новым Годом!!! pb.wtf



    07-01-2016 01:34 Крудсы: Начало Скачать торрент  

    ждемсссс раздачу ((((pb.wtf



    07-01-2016 05:48 Крудсы: Начало Скачать торрент  

    uuanton писал(а):

    ждемсссс раздачу ((((

    Переделал торрент!! Понятия не имею что за фигня!!pb.wtf



      Дорогой пользователь! Огромная просьба, поблагодарите релизера, оцените раздачу и оставьте свои комментарий, если Вы скачали Крудсы: Начало через торрент бесплатно! Внесите свою лепту в развитие PiratBit!
      Комментировать посты могут только пользователи прошедшие не сложную регистрацию
      Показать сообщения:    

      Крудсы: Начало через торрент
      Скачать бесплатно Крудсы: Начало
      Крудсы: Начало скачать торрент
      Крудсы: Начало смотреть онлайн
      Cкачать фильм Крудсы: Начало бесплатно
      Крудсы: Начало скачать торрент в хорошем качестве
      Крудсы: Начало смотреть онлайн бесплатно в хорошем качестве


      Вы не можете начинать темы
      Вы не можете отвечать на сообщения
      Вы не можете редактировать свои сообщения
      Вы не можете удалять свои сообщения
      Вы не можете голосовать в опросах
      Вы не можете прикреплять файлы к сообщениям
      Вы можете скачивать файлы