Ссылка на приватное зеркало нашего сайта всего за 1$. Внимание количество ограничено!!!

2 сезон

iTunes

1 сезон

1

2 сезон

2 сезон

iTunes

1 сезон

RePack

30

Ultimate

ВАЖНО

ИГРА 18+

pack

RePack

MK11
pack

Забери бонус

RePack

jed

!!Акция!!

Alien_Rage

RePack

fifa19

RePack

Assassins Creed: Odyssey

RePack

NEED FOR SPEED™ PAYBACK

4 сезон

9 сезон

Бесстыжие 9 сезон

Все сериалы

все сериалы на PB.wtf

RePack

FAR CRY 5
  

Марко Поло / Marco Polo / Сезон: 2 / Серия 00 (Спецэпизод) (Дэвид Петрарка / David Petrarca, Алик Сахаров / Alik Sakharov, Джон Мэйбери / John Maybury) [2015, США, драма, приключения, история, WEBRip 1080] MVO [BaibaKo] pb.wtf

Марко Поло через торрент pb.wtf

Размер: 1.35 GB | Добавлен: 4 года 11 мес. назад | Торрент скачан:91 раз
Скачать  

28-12-2015 02:18 Марко Поло Скачать торрент  

Марко Поло / Marco Polo
«Миры Столкнутся»


  • Год выпуска: 2015
  • Страна: США
  • Жанр: драма, приключения, история
  • Продолжительность: 00:28:22
  • Перевод: Профессиональный многоголосый закадровый) [BaibaKo]

  • Режиссер: Дэвид Петрарка / David Petrarca, Алик Сахаров / Alik Sakharov, Джон Мэйбери / John Maybury
  • В ролях:

    Бенедикт Вонг (Kublai Khan), Оливия Ченг (Mei Lin), Джоан Чэнь (Empress Chabi), Чжу Чжу (Kokachin), Махеш Джаду (Ahmad), Лоренцо Рикельми (Marco Polo), Реми Хий (Prince Jingim), Том Ву (Hundred Eyes), Uli Latukefu (Byamba), Чин Хань (Jia Sidao), Stanislav Satko (Armed Escort #2), Амр Вакед (Yusuf)


  • Спецэпизод расскажет о становлении и пути слепого война, который он прошёл до начала событий первого сезона. Второй сезон - летом 2016-го.
    Сюжет сериала основан на приключениях знаменитого исследователя Марко Поло в Китае в 13-м веке. Знаменитый исследователь оказался в центре жестокой войны, в мире боевых искусств, сексуальных интриг, грязной политики и нескончаемых сражений.
  • Рейтинг:



  • Качество: WEBRip 1080
  • Формат: :MKV
  • Видео кодек: AVC
  • Аудио кодек: AC3
  • Видео: 1920x960 (2.000), 5417 kbps, 23,976 fps, 0,123 bpp
  • Аудио №1: русский / 5.1 / 48 kHz / 640 kbps / 16 bit |[BaibaKo]|
  • Аудио №2: английский / 5.1 / 48 kHz / 640 kbps / 16 bit
  • Релиз от: GEKADOL

    Код:

    General
    Unique ID                                : 211968906724350292746387151975565909120 (0x9F77B9FA324BA97E8AEB3E0C1F9A5C80)
    Complete name                            : H:\Marco.Polo.s02e00.HD1080p.WEBRip.Rus.Eng.BaibaKo.tv.mkv
    Format                                   : Matroska
    Format version                           : Version 4 / Version 2
    File size                                : 1.35 GiB
    Duration                                 : 28mn 22s
    Overall bit rate                         : 6 820 Kbps
    Encoded date                             : UTC 2015-12-27 23:35:37
    Writing application                      : mkvmerge v8.3.0 ('Over the Horizon') 64bit
    Writing library                          : libebml v1.3.1 + libmatroska v1.4.2
    DURATION                                 : 00:28:22.400000000
    NUMBER_OF_FRAMES                         : 53200
    NUMBER_OF_BYTES                          : 136192000
    _STATISTICS_WRITING_APP                  : mkvmerge v8.3.0 ('Over the Horizon') 64bit
    _STATISTICS_WRITING_DATE_UTC             : 2015-12-27 23:35:37
    _STATISTICS_TAGS                         : BPS DURATION NUMBER_OF_FRAMES NUMBER_OF_BYTES

    Video
    ID                                       : 1
    Format                                   : AVC
    Format/Info                              : Advanced Video Codec
    Format profile                           : High@L4.1
    Format settings, CABAC                   : Yes
    Format settings, ReFrames                : 4 frames
    Codec ID                                 : V_MPEG4/ISO/AVC
    Duration                                 : 28mn 22s
    Bit rate                                 : 5 417 Kbps
    Width                                    : 1 920 pixels
    Height                                   : 960 pixels
    Display aspect ratio                     : 2.000
    Frame rate                               : 23.976 fps
    Color space                              : YUV
    Chroma subsampling                       : 4:2:0
    Bit depth                                : 8 bits
    Scan type                                : Progressive
    Bits/(Pixel*Frame)                       : 0.123
    Stream size                              : 1.07 GiB (79%)
    Writing library                          : x264 core 148 r2638 7599210
    Encoding settings                        : cabac=1 / ref=4 / deblock=1:-2:-2 / analyse=0x3:0x133 / me=umh / subme=10 / psy=1 / psy_rd=1.00:0.15 / mixed_ref=1 / me_range=24 / chroma_me=1 / trellis=2 / 8x8dct=1 / cqm=0 / deadzone=21,11 / fast_pskip=1 / chroma_qp_offset=-3 / threads=12 / lookahead_threads=2 / sliced_threads=0 / nr=0 / decimate=1 / interlaced=0 / bluray_compat=0 / constrained_intra=0 / bframes=8 / b_pyramid=2 / b_adapt=2 / b_bias=0 / direct=3 / weightb=1 / open_gop=0 / weightp=2 / keyint=240 / keyint_min=23 / scenecut=40 / intra_refresh=0 / rc_lookahead=60 / rc=crf / mbtree=1 / crf=17.0 / qcomp=0.60 / qpmin=0 / qpmax=69 / qpstep=4 / vbv_maxrate=62500 / vbv_bufsize=78125 / crf_max=0.0 / nal_hrd=none / filler=0 / ip_ratio=1.40 / aq=3:0.90
    Default                                  : No
    Forced                                   : No
    Color primaries                          : BT.709-5, BT.1361, IEC 61966-2-4, SMPTE RP177
    Transfer characteristics                 : BT.709-5, BT.1361
    Matrix coefficients                      : BT.709-5, BT.1361, IEC 61966-2-4 709, SMPTE RP177

    Audio #1
    ID                                       : 2
    Format                                   : AC-3
    Format/Info                              : Audio Coding 3
    Mode extension                           : CM (complete main)
    Codec ID                                 : A_AC3
    Duration                                 : 28mn 22s
    Bit rate mode                            : Constant
    Bit rate                                 : 640 Kbps
    Channel(s)                               : 6 channels
    Channel positions                        : Front: L C R, Side: L R, LFE
    Sampling rate                            : 48.0 KHz
    Bit depth                                : 16 bits
    Compression mode                         : Lossy
    Stream size                              : 130 MiB (9%)
    Language                                 : Russian
    Default                                  : Yes
    Forced                                   : No

    Audio #2
    ID                                       : 3
    Format                                   : AC-3
    Format/Info                              : Audio Coding 3
    Mode extension                           : CM (complete main)
    Codec ID                                 : A_AC3
    Duration                                 : 28mn 22s
    Bit rate mode                            : Constant
    Bit rate                                 : 640 Kbps
    Channel(s)                               : 6 channels
    Channel positions                        : Front: L C R, Side: L R, LFE
    Sampling rate                            : 48.0 KHz
    Bit depth                                : 16 bits
    Compression mode                         : Lossy
    Stream size                              : 130 MiB (9%)
    Language                                 : English
    Default                                  : No
    Forced                                   : No


    Скриншоты:



    pb.wtf



  • Скачать Марко Поло через торрент http://i74.fastpic.ru/big/2015/1228/02/8de68a07a87ecb8b8f8f1f072b527102.jpg Скачать фильм Марко Поло через торрент бесплантно в хорошем качестве qw.png Спецэпизод расскажет о становлении и пути слепого война, который он прошёл до начала событий первого сезона. Второй сезон - летом ... 8.6 10 9
    Торрент: Зарегистрирован [2015-12-28 02:18] · скачан: 91 раз
    Статус: √ проверено
    Размер: 1.35 GB
    Как cкачать? Как скачать Марко Поло через торрент | qTorrent

    % Раздел Тема Автор DL S | L
    Зарубежные сериалы [ 341 MB ] Марко Поло: Сотня глаз / Marco Polo: One Hundred Eyes / Сезон: 2 / Серия 00 [2015 WEBRip] [MVO] killermax2013 Скачать
    1 | 0
    Зарубежные сериалы [ 378 MB ] Марко Поло / Marco Polo / Сезон: 2 / Серия 00 [2015 история WEBRip] MVO [BaibaKo] GEKADOL Скачать
    1 | 0

    28-11-2019 20:33  

    Отключить всю рекламу на сайте

      Дорогой пользователь! Огромная просьба, поблагодарите релизера, оцените раздачу и оставьте свои комментарий, если Вы скачали Марко Поло через торрент бесплатно! Внесите свою лепту в развитие PiratBit!
      Комментировать посты могут только пользователи прошедшие не сложную регистрацию
      Показать сообщения:    

      Марко Поло через торрент
      Скачать бесплатно Марко Поло
      Марко Поло скачать торрент
      Марко Поло смотреть онлайн
      Cкачать фильм Марко Поло бесплатно
      Марко Поло скачать торрент в хорошем качестве
      Марко Поло смотреть онлайн бесплатно в хорошем качестве


      Вы не можете начинать темы
      Вы не можете отвечать на сообщения
      Вы не можете редактировать свои сообщения
      Вы не можете удалять свои сообщения
      Вы не можете голосовать в опросах
      Вы не можете прикреплять файлы к сообщениям
      Вы можете скачивать файлы