Ссылка на приватное зеркало всего за 1$. Внимание количество ограничено!!!

iTunes

iTunes

iTunes

1

iTunes

iTunes

iTunes

iTunes

iTunes

30
pack

$ от Little Big

ВАЖНО

!!Акция!!

Alien_RageХит недели

RePack

Resident Evil 21

ИГРА 18+

pack

RePack

jed

!!Акция!!

Alien_Rage

RePack

fifa19

RePack

Assassins Creed: Odyssey

RePack

NEED FOR SPEED™ PAYBACK

4 сезон

9 сезон

Бесстыжие 9 сезон

Все сериалы

все сериалы на PB.wtf

RePack

FAR CRY 5
  

Убойный огонек / Mi gran noche (Алекс де ла Иглесиа) [2015, комедия, WEB-DL 1080p,Профессиональный многоголосый [Лицензия / iTunes] pb.wtf

Убойный огонек через торрент pb.wtf

Размер: 3.38 GB | Добавлен: 4 года 6 мес. назад | Торрент скачан:154 раза
Скачать  

28-12-2015 13:42 Убойный огонек Скачать торрент  

Убойный огонек / Mi gran noche
Год выпуска: 2015
Страна: Испания
Жанр: комедия
Продолжительность: 01:37:02
Перевод: Профессиональный многоголосый[Лицензия / iTunes]
Режиссер: Алекс де ла Иглесиа
В ролях:

Рафаэль (Alphonso), Марио Касас (Adanne), Пепон Ниэто (Jose), Бланка Суарес (Paloma), Уго Сильва (Roberto), Кармен Мачи (Rosa), Луис Кальехо (Regidor), Карлос Аресес (Yuri), Энрике Вильен (Soriano), Сантьяго Сегура (Benítez), Хайме Ордоньес (Óscar), Томас Поцци (Perotti)
Описание:
Телезапись зрелищного «новогоднего огонька» оборачивается абсолютным сумасшествием, когда череда несчастных случаев обрушивается на съемочную площадку один за другим. Съемочный кран только что разгромил столик с массовкой... включая массовку. Одержимая фанатка шантажирует Адана, сексапильную сверх всякой меры поп-звезду. За легендарным певцом Альфонсо открывает вооруженную охоту сумасшедший автор песен. Один из актеров массовки, Хосе, пытает свое счастье с прекрасной Паломой, однако всех ее мужчин обычно преследуют беды. Тем временем снаружи разъяренная толпа требует ареста бесчестного продюсера шоу. В любой момент все окончательно выйдет из под контроля. Как всегда, «праздник» подкрался незаметно!
Мировая премьера: 11 сентября 2015

Качество: WEB-DL 1080p
Формат: MKV
Видео: AVC, 1920x812 (2.35:1), 4499 kbps, 24 fps, 0,120 bpp
Аудио: русский / AC3 / 5.1 / 48 kHz / 384 kbps / 16 bit ||

Код:

General
Unique ID                                : 181102580464495237358948282929768470257 (0x883F169902632758B251CA9BE66296F1)
Complete name                            : D:\download\Y60ynii.0g0nek.2015.WEB-DL.1080p.mkv
Format                                   : Matroska
Format version                           : Version 4 / Version 2
File size                                : 3.38 GiB
Duration                                 : 1h 37mn
Overall bit rate                         : 4 982 Kbps
Encoded date                             : UTC 2015-12-27 20:00:07
Writing application                      : mkvmerge v8.3.0 ('Over the Horizon') 64bit
Writing library                          : libebml v1.3.1 + libmatroska v1.4.2
DURATION                                 : 01:37:02.624000000
NUMBER_OF_FRAMES                         : 181957
NUMBER_OF_BYTES                          : 279485952
_STATISTICS_WRITING_APP                  : mkvmerge v8.3.0 ('Over the Horizon') 64bit
_STATISTICS_WRITING_DATE_UTC             : 2015-12-27 20:00:07
_STATISTICS_TAGS                         : BPS DURATION NUMBER_OF_FRAMES NUMBER_OF_BYTES

Video
ID                                       : 1
Format                                   : AVC
Format/Info                              : Advanced Video Codec
Format profile                           : High@L4.0
Format settings, CABAC                   : Yes
Format settings, ReFrames                : 5 frames
Codec ID                                 : V_MPEG4/ISO/AVC
Duration                                 : 1h 37mn
Bit rate                                 : 4 499 Kbps
Width                                    : 1 920 pixels
Height                                   : 812 pixels
Display aspect ratio                     : 2.35:1
Frame rate                               : 24.000 fps
Color space                              : YUV
Chroma subsampling                       : 4:2:0
Bit depth                                : 8 bits
Scan type                                : Progressive
Bits/(Pixel*Frame)                       : 0.120
Stream size                              : 3.05 GiB (90%)
Language                                 : English
Default                                  : Yes
Forced                                   : No
Color primaries                          : BT.709-5, BT.1361, IEC 61966-2-4, SMPTE RP177
Transfer characteristics                 : BT.709-5, BT.1361
Matrix coefficients                      : BT.709-5, BT.1361, IEC 61966-2-4 709, SMPTE RP177

Audio
ID                                       : 2
Format                                   : AC-3
Format/Info                              : Audio Coding 3
Mode extension                           : CM (complete main)
Codec ID                                 : A_AC3
Duration                                 : 1h 37mn
Bit rate mode                            : Constant
Bit rate                                 : 384 Kbps
Channel(s)                               : 6 channels
Channel positions                        : Front: L C R, Side: L R, LFE
Sampling rate                            : 48.0 KHz
Bit depth                                : 16 bits
Compression mode                         : Lossy
Stream size                              : 267 MiB (8%)
Language                                 : Russian
Default                                  : Yes
Forced                                   : No

Menu
00:00:00.000                             : en:Глава 1
00:05:10.000                             : en:Глава 2
00:11:52.000                             : en:Глава 3
00:18:28.000                             : en:Глава 4
00:23:49.000                             : en:Глава 5
00:29:56.000                             : en:Глава 6
00:35:41.000                             : en:Глава 7
00:40:53.000                             : en:Глава 8
00:46:39.000                             : en:Глава 9
00:51:44.000                             : en:Глава 10
00:57:05.000                             : en:Глава 11
01:02:32.000                             : en:Глава 12
01:08:21.000                             : en:Глава 13
01:13:47.000                             : en:Глава 14
01:19:33.000                             : en:Глава 15
01:25:02.000                             : en:Глава 16
01:30:23.000                             : en:Глава 17


pb.wtf



Скачать Убойный огонек через торрент http://pic1.kartinco.top/images/10/ejpqs.jpg Скачать фильм Убойный огонек через торрент бесплантно в хорошем качестве Описание: Телезапись зрелищного «новогоднего огонька» оборачивается абсолютным сумасшествием, когда череда несчастных случаев обрушивается ... 10 10 6
Торрент: Зарегистрирован [2015-12-28 13:42] · скачан: 154 раз
Статус: √ проверено
Размер: 3.38 GB
Как cкачать? Как скачать Убойный огонек через торрент | qTorrent

% Раздел Тема Автор DL S | L
R.G. Resident & PiratVoice - Фильмы, Видео [ 1.46 GB ] Убойный огонек / Mi gran noche [2015 WEB-DLRip-AVC многоголосый R.G.Resident schultz Скачать
1 | 0
Фильмы (WEB-DL 720p, 1080p) [ 3 GB ] Убойный огонек / Mi gran noche [2015 WEB-DL 720p ] $-DRON-$ Скачать
1 | 0
Фильмы 2015 [DVDrip, WEB-DLRip, HDrip] [ 1.46 GB ] Убойный огонек / Mi gran noche [2015 WEB-DLRip] $-DRON-$ Скачать
1 | 0

28-11-2019 20:33  

Отключить всю рекламу на сайте

    Дорогой пользователь! Огромная просьба, поблагодарите релизера, оцените раздачу и оставьте свои комментарий, если Вы скачали Убойный огонек через торрент бесплатно! Внесите свою лепту в развитие PiratBit!
    Комментировать посты могут только пользователи прошедшие не сложную регистрацию
    Показать сообщения:    

    Убойный огонек через торрент
    Скачать бесплатно Убойный огонек
    Убойный огонек скачать торрент
    Убойный огонек смотреть онлайн
    Cкачать фильм Убойный огонек бесплатно
    Убойный огонек скачать торрент в хорошем качестве
    Убойный огонек смотреть онлайн бесплатно в хорошем качестве


    Вы не можете начинать темы
    Вы не можете отвечать на сообщения
    Вы не можете редактировать свои сообщения
    Вы не можете удалять свои сообщения
    Вы не можете голосовать в опросах
    Вы не можете прикреплять файлы к сообщениям
    Вы можете скачивать файлы