Ссылка на приватное зеркало нашего сайта всего за 1$. Внимание количество ограничено!!!

2 сезон

iTunes

1 сезон

1

2 сезон

2 сезон

iTunes

1 сезон

RePack

30

Новинка

ВАЖНО

ИГРА 18+

pack

RePack

MK11
pack

Забери бонус

RePack

jed

!!Акция!!

Alien_Rage

RePack

fifa19

RePack

Assassins Creed: Odyssey

RePack

NEED FOR SPEED™ PAYBACK

4 сезон

9 сезон

Бесстыжие 9 сезон

Все сериалы

все сериалы на PB.wtf

RePack

FAR CRY 5
  

ПРАВ!ДА? (Эфир: 29/12/15)(Дмитрий Лысков, Николай Матвеев, Варвара Макаревич.) [2015 г., документальный, DVB, Русский] pb.wtf

ПРАВ!ДА? через торрент pb.wtf

Размер: 1.02 GB | Добавлен: 4 года 10 мес. назад | Торрент скачан:13 раз
Скачать  

29-12-2015 11:50 ПРАВ!ДА? Скачать торрент  

ПРАВ!ДА?

Год выпуска: 2015
Страна: Россия
Жанр: документальный
Продолжительность: 00:51:56
Перевод: Не требуется Русский

Ведущие программы: Дмитрий Лысков, Николай Матвеев, Варвара Макаревич.

Описание: ПРАВ!ДА? на ОТР - проект, посвященный самым острым проблемам, волнующим жителей нашей страны.

Медицина, образование, положение армии, наука, большая политика и местное самоуправление, социализация мигрантов, волонтерские движения, деятельность профсоюзов...

Качество: DVB
Формат: TS
Видео кодек: AVC
Аудио кодек: MP2
Видео: AVC, 720x576 (16:9), 25.000 fps, 2 475 Kbps (0.239 bit/pixel)
Аудио: MP2, 48.0 KHz, 2 ch, 192 Kbps, CBR

Формат : MPEG-TS
Размер файла : 1,02 Гбайт
Продолжительность : 51 м.
Режим общего битрейта : Переменный
Общий поток : 2808 Кбит/сек

Видео
Идентификатор : 1091 (0x443)
Идентификатор меню : 1090 (0x442)
Формат : AVC
Формат/Информация : Advanced Video Codec
Профиль формата : Main@L3
Параметр CABAC формата : Да
Параметр ReFrames формата : 3 кадра
Параметр GOP формата : M=4, N=28
Идентификатор кодека : 27
Продолжительность : 51 м.
Битрейт : 2475 Кбит/сек
Ширина : 720 пикселей
Высота : 576 пикселей
Соотношение сторон : 16:9
Частота кадров : 25,000 кадров/сек
Стандарт вещания : Component
Цветовое пространство : YUV
Субдискретизация насыщенности : 4:2:0
Битовая глубина : 8 бит
Тип развёртки : Чересстрочная
Порядок развёртки : Верхнее поле первое
Бит/(Пиксели*Кадры) : 0.239
Размер потока : 920 Мбайт (88%)
Цветовой диапазон : Limited
Основные цвета : BT.601 PAL
Характеристики трансфера : BT.470 System B, BT.470 System G
Коэффициенты матрицы : BT.601

Аудио
Идентификатор : 1092 (0x444)
Идентификатор меню : 1090 (0x442)
Формат : MPEG Audio
Версия формата : Version 1
Профиль формата : Layer 2
Идентификатор кодека : 3
Продолжительность : 51 м.
Вид битрейта : Постоянный
Битрейт : 192 Кбит/сек
Каналы : 2 канала
Частота : 48,0 КГц
Метод сжатия : С потерями
Задержка видео : 84 мс.
Размер потока : 71,3 Мбайт (7%)

скриншот  скриншот  скриншот  скриншот  скриншот  
pb.wtf



Скачать ПРАВ!ДА? через торрент http://i.imgur.com/Qs4UrCU.png Скачать фильм ПРАВ!ДА? через торрент бесплантно в хорошем качестве Описание: ПРАВ!ДА? на ОТР - проект, посвященный самым острым проблемам, волнующим жителей нашей страны. Медицина, образование, положение ... 7 10 3
Торрент: Зарегистрирован [2015-12-29 11:50] · скачан: 13 раз
Статус: √ проверено
Размер: 1.02 GB
Как cкачать? Как скачать ПРАВ!ДА? через торрент | qTorrent

% Раздел Тема Автор DL S | L
Зарубежные сериалы [ 102.93 GB ] Правосудие / Justified / Сезон: 5 / Серии: 1-13 из 13 [2014 BDRemux 1080p] [MVO] killermax2013 Скачать
1 | 0
Зарубежные сериалы [ 95.07 GB ] Правосудие / Justified / Сезон: 4 / Серии: 1-13 из 13 [2013 BDRemux 1080p] [MVO] killermax2013 Скачать
2 | 0
Зарубежные сериалы [ 108.84 GB ] Правосудие / Justified / Сезон: 3 / Серии: 1-13 из 13 [2012 BDRemux 1080p] [MVO] killermax2013 Скачать
1 | 0
Зарубежные сериалы [ 117.74 GB ] Правосудие / Justified / Сезон: 2 / Серии: 1-13 из 13 [2011 BDRemux 1080p] [MVO] killermax2013 Скачать
1 | 0
Зарубежные сериалы [ 104.01 GB ] Правосудие / Justified / Сезон: 1 / Серии: 1-13 из 13 [2010 BDRemux 1080p] [MVO] killermax2013 Скачать
1 | 0
Документальные фильмы и телепередачи [ 631 MB ] Новые дворяне: кто дал им право [2019 Документальный SATRip] Скорпион1976 Скачать
1 | 0
Детективы, Боевики, Триллеры [ 737 MB ] Дэвид Балдаччи - Чистая правда [Старчиков Степан 2019 96 kbps MP3] bober100 Скачать
1 | 0

28-11-2019 20:33  

Отключить всю рекламу на сайте

29-12-2015 14:22 ПРАВ!ДА? Скачать торрент  

ценю старания
не понравилосьpb.wtf



    Дорогой пользователь! Огромная просьба, поблагодарите релизера, оцените раздачу и оставьте свои комментарий, если Вы скачали ПРАВ!ДА? через торрент бесплатно! Внесите свою лепту в развитие PiratBit!
    Комментировать посты могут только пользователи прошедшие не сложную регистрацию
    Показать сообщения:    

    ПРАВ!ДА? через торрент
    Скачать бесплатно ПРАВ!ДА?
    ПРАВ!ДА? скачать торрент
    ПРАВ!ДА? смотреть онлайн
    Cкачать фильм ПРАВ!ДА? бесплатно
    ПРАВ!ДА? скачать торрент в хорошем качестве
    ПРАВ!ДА? смотреть онлайн бесплатно в хорошем качестве


    Вы не можете начинать темы
    Вы не можете отвечать на сообщения
    Вы не можете редактировать свои сообщения
    Вы не можете удалять свои сообщения
    Вы не можете голосовать в опросах
    Вы не можете прикреплять файлы к сообщениям
    Вы можете скачивать файлы