Ссылка на приватное зеркало нашего сайта всего за 1$. Внимание количество ограничено!!!

2 сезон

iTunes

1 сезон

1

2 сезон

2 сезон

iTunes

1 сезон

RePack

30

Ultimate

ВАЖНО

ИГРА 18+

pack

RePack

MK11
pack

Забери бонус

RePack

jed

!!Акция!!

Alien_Rage

RePack

fifa19

RePack

Assassins Creed: Odyssey

RePack

NEED FOR SPEED™ PAYBACK

4 сезон

9 сезон

Бесстыжие 9 сезон

Все сериалы

все сериалы на PB.wtf

RePack

FAR CRY 5
  

Ворон. Лестница в небо / The Crow. Stairway To Heaven / Сезон: 1 / Серии: 1-22 из 22 (Скотт Уильямс / Scott Williams) [1998, фэнтези, боевик, триллер, драма, криминал, DVDRip] AVO (Ю.Сербин) + Original pb.wtf

Ворон. Лестница в небо через торрент pb.wtf

Размер: 14.19 GB | Добавлен: 4 года 11 мес. назад | Торрент скачан:52 раза
Скачать  

29-12-2015 17:35 Ворон. Лестница в небо Скачать торрент  

Ворон / The Crow: Stairway to Heaven

«The Epic Tale of Supernatural Vengeance Takes Flight Again»

Год выпуска: 1998-1999
Страна: Канада
Жанр: фэнтези, боевик, триллер, драма, криминал
Продолжительность: ~00:45:00 серия.
Перевод: Авторский одноголосый [Ю.Сербин]
Режиссер: Алан Симмондс , Джеймс Хэд , Т.У. Пикок
В ролях: Марк Дакаскос (Eric Draven), Марк Гомес (Detective Darryl Albrecht), Сабина Карсенти (Shelly Webster), Кэти Стюарт (Sarah Mohr), Джон Кетберт (Lieutenant David Vincennes), Линда Бойд (Darla Mohr), Кристина Кокс (Jessica Capshaw), Сулека Мэтью (D.A. Cordelia Warren), Гаэтана Кобрин (Louise Moran), Тай Олссон (Fun Boy), Зак Сантьяго (Curtis Bilbao), Джерри Вассерман (Judge Paul Morrison)
Описание:
Узнав, что кто - то пользуется документами покойной Шэлли Вэбстер, Эрик Дрейвен выходит на след крупной мафиозной группировки. Шайка преследует девушку, которая может многое рассказать в суде о грязных махинациях безжалостных бандитов.
Вместе с детективом Альбрехтом он спасает ей жизнь и разоблачает продажных агентов ФБР, запятнавших себя связью с убийцами. Вернувшись в родной квартал, Эрик узнает, что его заклятый враг, жестокий Том Доллар вырвался на свободу и убивает всех, кто когда - то помог полиции упрятать его за решетку.
Теперь бесстрашный и загадочный Ворон должен раз и навсегда разделаться с кровожадным маньяком и успеть добраться до Портала, по ту сторону которого томится в ожидании его возлюбленная.
Рейтинг:

Качество: DVDRip
Формат: AVI
Видео кодек: XviD
Аудио кодек: AC3
Видео: XviD, 624x480, 1800 kbps, 25 fps, 0,240 bpp
Аудио №1: русский AC3 / 2.0 / 48 kHz / 192 kbps / 16 bit
Аудио №2: английский AC3 / 2.0 / 48 kHz / 192 kbps / 16 bit

Спасибо:
veretskiy - немножко перевода к 10 серии (max 20 слов)
morr - за звук к 9, 10 сериям
Fikaloid - за звук к 1-8, 11, 12 сериям
*Sergeant_am* - сведение + спонсирование серий с 13 по 22 и исходники для рипов

Код:

General
Complete name                            : C:\Users\tut\Desktop\The.Crow_Stairway.To.Heaven.1998.dvdrip_[teko]\s01e01-02_The.Soul.Can't.Rest.&.Souled.Out.avi
Format                                   : AVI
Format/Info                              : Audio Video Interleave
File size                                : 1.25 GiB
Duration                                 : 1h 21mn
Overall bit rate                         : 2 198 Kbps
Writing application                      : VirtualDubMod 1.5.10.3 | www.virtualdub-fr.org || (build 2550/release)
Writing library                          : VirtualDubMod build 2550/release

Video
ID                                       : 0
Format                                   : MPEG-4 Visual
Format profile                           : Advanced Simple@L5
Format settings, BVOP                    : 1
Format settings, QPel                    : No
Format settings, GMC                     : No warppoints
Format settings, Matrix                  : Custom
Codec ID                                 : XVID
Codec ID/Hint                            : XviD
Duration                                 : 1h 21mn
Bit rate                                 : 1 800 Kbps
Width                                    : 624 pixels
Height                                   : 480 pixels
Display aspect ratio                     : 1.300
Frame rate                               : 25.000 fps
Color space                              : YUV
Chroma subsampling                       : 4:2:0
Bit depth                                : 8 bits
Scan type                                : Progressive
Compression mode                         : Lossy
Bits/(Pixel*Frame)                       : 0.240
Stream size                              : 1.03 GiB (82%)
Writing library                          : XviD 73

Audio #1
ID                                       : 1
Format                                   : AC-3
Format/Info                              : Audio Coding 3
Mode extension                           : CM (complete main)
Codec ID                                 : 2000
Duration                                 : 1h 21mn
Bit rate mode                            : Constant
Bit rate                                 : 192 Kbps
Channel(s)                               : 2 channels
Channel positions                        : Front: L R
Sampling rate                            : 48.0 KHz
Bit depth                                : 16 bits
Compression mode                         : Lossy
Stream size                              : 112 MiB (9%)
Alignment                                : Split accross interleaves
Interleave, duration                     : 40 ms (1.00 video frame)
Interleave, preload duration             : 500 ms

Audio #2
ID                                       : 2
Format                                   : AC-3
Format/Info                              : Audio Coding 3
Mode extension                           : CM (complete main)
Codec ID                                 : 2000
Duration                                 : 1h 21mn
Bit rate mode                            : Constant
Bit rate                                 : 192 Kbps
Channel(s)                               : 2 channels
Channel positions                        : Front: L R
Sampling rate                            : 48.0 KHz
Bit depth                                : 16 bits
Compression mode                         : Lossy
Stream size                              : 112 MiB (9%)
Alignment                                : Split accross interleaves
Interleave, duration                     : 40 ms (1.00 video frame)
Interleave, preload duration             : 500 ms


скриншот   скриншот   скриншот   скриншот   скриншот   скриншот  
pb.wtf



Скачать Ворон. Лестница в небо через торрент http://pic1.kartinco.top/images/10/zku1z.jpg Скачать фильм Ворон. Лестница в небо через торрент бесплантно в хорошем качестве Описание: Узнав, что кто - то пользуется документами покойной Шэлли Вэбстер, Эрик Дрейвен выходит на след крупной мафиозной группировки. ... 10 10 7
Info! Золотая раздача, скачанное не засчитывается.
Торрент: Зарегистрирован [2015-12-29 17:35] · скачан: 52 раз
Статус: √ проверено
Размер: 14.19 GB
Как cкачать? Как скачать Ворон. Лестница в небо через торрент | qTorrent

28-11-2019 20:33  

Отключить всю рекламу на сайте

    Дорогой пользователь! Огромная просьба, поблагодарите релизера, оцените раздачу и оставьте свои комментарий, если Вы скачали Ворон. Лестница в небо через торрент бесплатно! Внесите свою лепту в развитие PiratBit!
    Комментировать посты могут только пользователи прошедшие не сложную регистрацию
    Показать сообщения:    

    Ворон. Лестница в небо через торрент
    Скачать бесплатно Ворон. Лестница в небо
    Ворон. Лестница в небо скачать торрент
    Ворон. Лестница в небо смотреть онлайн
    Cкачать фильм Ворон. Лестница в небо бесплатно
    Ворон. Лестница в небо скачать торрент в хорошем качестве
    Ворон. Лестница в небо смотреть онлайн бесплатно в хорошем качестве


    Вы не можете начинать темы
    Вы не можете отвечать на сообщения
    Вы не можете редактировать свои сообщения
    Вы не можете удалять свои сообщения
    Вы не можете голосовать в опросах
    Вы не можете прикреплять файлы к сообщениям
    Вы можете скачивать файлы