Ссылка на приватное зеркало нашего сайта всего за 1$. Внимание количество ограничено!!!

2 сезон

iTunes

1 сезон

1

2 сезон

2 сезон

iTunes

1 сезон

RePack

30

Новинка

ВАЖНО

ИГРА 18+

pack

RePack

MK11
pack

Забери бонус

RePack

jed

!!Акция!!

Alien_Rage

RePack

fifa19

RePack

Assassins Creed: Odyssey

RePack

NEED FOR SPEED™ PAYBACK

4 сезон

9 сезон

Бесстыжие 9 сезон

Все сериалы

все сериалы на PB.wtf

RePack

FAR CRY 5
  

Современный потрошитель / Whitechapel / Сезон: 1-4 / Серии: 1-18 из 18 (Дэвид Эванс, C.Дж. Кларксон ...) [2009-2013, Детектив, Криминал, Триллер, HDTVRip 720p, WEB-DL 720p] DVO [FOX Crime, AlexFilm] Sub Rus, Eng pb.wtf

Современный потрошитель через торрент pb.wtf

Размер: 29.19 GB | Добавлен: 4 года 10 мес. назад | Торрент скачан:63 раза
Скачать  

29-12-2015 17:37 Современный потрошитель Скачать торрент  

Современный потрошитель / Whitechapel
«Кошмар возвращается»

Год выпуска: 2009-2013
Страна: Великобритания
Жанр: триллер, криминал, детектив
Продолжительность: ~00:45:00 серия.
Перевод:
Профессиональный многоголосый FOX Crime (1-3 сезоны) -
Профессиональный многоголосый AlexFilm (3, 4 сезоны) -
Субтитры: русские, английские вшитые
Режиссер: Джон Ист , С.Дж. Кларксон , Дэвид Эванс
В ролях: Руперт Пенри-Джонс (DI Joseph Chandler), Филип Дэвис (DS Ray Miles), Стив Пембертон (Edward Buchan), Сэм Стокман (DC Emerson Kent), Клэр Рашбрук (Dr. Caroline Llewellyn), Бен Бишоп (DC Finley Mansell), Ханна Уолтерс (DC Megan Riley), Damian Dudkiewicz (Igor), Джордж Росси (DC McCormack), Анджела Плезенс (Louise Iver), Алекс Дженнингс (Commander Anderson), Кристофер Фулфорд (DC Fitzgerald)
Описание:
Джек Потрошитель - псевдоним, присвоенный так и оставшемуся неизвестным серийному убийце, который действовал в Уайтчепеле и прилежащих районах Лондона во второй половине 1888 года. Полиция того времени не была способна его поймать. Смогут ли сделать это современные детективы?
Рейтинг:

Качество: HDTVRip 720p; WEB-DL 720p
Формат: MKV
Видео кодек: AVC
Аудио кодек: AC3
Видео:AVC, 1280x720, [1-2 сезон] 3200 kbps, [3-4 сезон] 6000 kbps, 25 fps, 0,139 bpp
Аудио №1: русский / AC3 / 2.0 / 48 kHz / 192 kbps / 16 bit
Аудио №2: английский / AC3 / 2.0 / 48 kHz / 192 kbps / 16 bit
По сезонно

Код:

General
Unique ID                   : 182428745817859570555220170936161773947 (0x893E7F990701AA4C98E9C2E240D5A97B)
Complete name               : C:\Users\tut\Desktop\Whitechapel\Whitechapel.S01\Whitechapel.S01E01.720p.HDTVRip.Rus.Eng.mkv
Format                      : Matroska
Format version              : Version 2
File size                   : 1.14 GiB
Duration                    : 45mn 52s
Overall bit rate            : 3 558 Kbps
Movie name                  : Whitechapel [Season 1] (2009) - Release for HDCLUB
Encoded date                : UTC 2012-05-28 13:48:43
Writing application         : mkvmerge v5.5.0 ('Healer') built on Apr  6 2012 21:43:24
Writing library             : libebml v1.2.3 + libmatroska v1.3.0

Video
ID                          : 1
Format                      : AVC
Format/Info                 : Advanced Video Codec
Format profile              : High@L4.1
Format settings, CABAC      : Yes
Format settings, ReFrames   : 5 frames
Codec ID                    : V_MPEG4/ISO/AVC
Duration                    : 45mn 52s
Bit rate                    : 3 200 Kbps
Width                       : 1 280 pixels
Height                      : 720 pixels
Display aspect ratio        : 16:9
Frame rate mode             : Constant
Frame rate                  : 25.000 fps
Color space                 : YUV
Chroma subsampling          : 4:2:0
Bit depth                   : 8 bits
Scan type                   : Progressive
Bits/(Pixel*Frame)          : 0.139
Stream size                 : 1 018 MiB (87%)
Title                       : Whitechapel 1 Episode 1 - Release for HDCLUB
Writing library             : x264 core 115 r1936 7a9e08d
Encoding settings           : cabac=1 / ref=5 / deblock=1:0:0 / analyse=0x3:0x133 / me=umh / subme=7 / psy=1 / psy_rd=1.00:0.00 / mixed_ref=1 / me_range=16 / chroma_me=1 / trellis=1 / 8x8dct=1 / cqm=0 / deadzone=21,11 / fast_pskip=0 / chroma_qp_offset=-2 / threads=8 / sliced_threads=0 / nr=0 / decimate=1 / interlaced=0 / bluray_compat=0 / constrained_intra=0 / bframes=3 / b_pyramid=2 / b_adapt=1 / b_bias=0 / direct=1 / weightb=1 / open_gop=0 / weightp=2 / keyint=250 / keyint_min=25 / scenecut=40 / intra_refresh=0 / rc_lookahead=40 / rc=2pass / mbtree=1 / bitrate=3200 / ratetol=1.0 / qcomp=0.60 / qpmin=0 / qpmax=69 / qpstep=4 / cplxblur=20.0 / qblur=0.5 / ip_ratio=1.40 / aq=1:1.00
Language                    : English
Default                     : Yes
Forced                      : No

Audio #1
ID                          : 2
Format                      : AC-3
Format/Info                 : Audio Coding 3
Mode extension              : CM (complete main)
Format settings, Endianness : Big
Codec ID                    : A_AC3
Duration                    : 45mn 52s
Bit rate mode               : Constant
Bit rate                    : 192 Kbps
Channel(s)                  : 2 channels
Channel positions           : Front: L R
Sampling rate               : 48.0 KHz
Frame rate                  : 31.250 fps (1536 spf)
Compression mode            : Lossy
Stream size                 : 63.0 MiB (5%)
Title                       : Fox Crime
Language                    : Russian
Default                     : Yes
Forced                      : No

Audio #2
ID                          : 3
Format                      : AC-3
Format/Info                 : Audio Coding 3
Mode extension              : CM (complete main)
Format settings, Endianness : Big
Codec ID                    : A_AC3
Duration                    : 45mn 52s
Bit rate mode               : Constant
Bit rate                    : 192 Kbps
Channel(s)                  : 2 channels
Channel positions           : Front: L R
Sampling rate               : 48.0 KHz
Frame rate                  : 31.250 fps (1536 spf)
Compression mode            : Lossy
Stream size                 : 63.0 MiB (5%)
Language                    : English
Default                     : No
Forced                      : No

Text #1
ID                          : 4
Format                      : UTF-8
Codec ID                    : S_TEXT/UTF8
Codec ID/Info               : UTF-8 Plain Text
Language                    : Russian
Default                     : No
Forced                      : No

Text #2
ID                          : 5
Format                      : UTF-8
Codec ID                    : S_TEXT/UTF8
Codec ID/Info               : UTF-8 Plain Text
Language                    : English
Default                     : No
Forced                      : No

Код:

General
Unique ID                   : 252162529402555931475850016296838681997 (0xBDB4BC93512F112CA75D4B3453C8D58D)
Complete name               : C:\Users\tut\Desktop\Whitechapel\Whitechapel.S02\Whitechapel.s02e01.WEB-DL.720p.Rus.Eng.mkv
Format                      : Matroska
Format version              : Version 4 / Version 2
File size                   : 2.02 GiB
Duration                    : 45mn 45s
Overall bit rate mode       : Constant
Overall bit rate            : 6 321 Kbps
Movie name                  : Whitechapel 2x01
Encoded date                : UTC 2015-05-18 17:12:15
Writing application         : mkvmerge v6.6.0 ('The Edge Of The In Between') built on Dec  1 2013 17:55:00
Writing library             : libebml v1.3.0 + libmatroska v1.4.1

Video
ID                          : 1
Format                      : AVC
Format/Info                 : Advanced Video Codec
Format profile              : High@L3.1
Format settings, CABAC      : Yes
Format settings, ReFrames   : 4 frames
Codec ID                    : V_MPEG4/ISO/AVC
Duration                    : 45mn 45s
Bit rate mode               : Constant
Bit rate                    : 6 000 Kbps
Width                       : 1 280 pixels
Height                      : 720 pixels
Display aspect ratio        : 16:9
Frame rate mode             : Constant
Frame rate                  : 25.000 fps
Standard                    : PAL
Color space                 : YUV
Chroma subsampling          : 4:2:0
Bit depth                   : 8 bits
Scan type                   : Progressive
Bits/(Pixel*Frame)          : 0.260
Stream size                 : 1.86 GiB (92%)
Language                    : English
Default                     : Yes
Forced                      : No
Color range                 : Limited
Color primaries             : BT.709
Transfer characteristics    : BT.709
Matrix coefficients         : BT.709

Audio #1
ID                          : 2
Format                      : AC-3
Format/Info                 : Audio Coding 3
Mode extension              : CM (complete main)
Format settings, Endianness : Big
Codec ID                    : A_AC3
Duration                    : 45mn 45s
Bit rate mode               : Constant
Bit rate                    : 192 Kbps
Channel(s)                  : 2 channels
Channel positions           : Front: L R
Sampling rate               : 48.0 KHz
Frame rate                  : 31.250 fps (1536 spf)
Compression mode            : Lossy
Stream size                 : 62.8 MiB (3%)
Title                       : DD2.0 Fox Crime
Language                    : Russian
Default                     : Yes
Forced                      : No

Audio #2
ID                          : 3
Format                      : AC-3
Format/Info                 : Audio Coding 3
Mode extension              : CM (complete main)
Format settings, Endianness : Big
Codec ID                    : A_AC3
Duration                    : 45mn 45s
Bit rate mode               : Constant
Bit rate                    : 192 Kbps
Channel(s)                  : 2 channels
Channel positions           : Front: L R
Sampling rate               : 48.0 KHz
Frame rate                  : 31.250 fps (1536 spf)
Compression mode            : Lossy
Stream size                 : 62.8 MiB (3%)
Title                       : DD2.0 Original
Language                    : English
Default                     : No
Forced                      : No

Код:

General
Unique ID                   : 243744931262951553964814652159571355810 (0xB75F90F1E7EFE455B8BAE8002DF168A2)
Complete name               : C:\Users\tut\Desktop\Whitechapel\Whitechapel.S03\Whitechapel.s03e01.WEB-DL.720p.2xRus.Eng.AlexFilm.mkv
Format                      : Matroska
Format version              : Version 4 / Version 2
File size                   : 2.08 GiB
Duration                    : 46mn 3s
Overall bit rate            : 6 457 Kbps
Movie name                  : Whitechapel 3x01 @ AlexFilm
Encoded date                : UTC 2015-07-21 20:28:31
Writing application         : mkvmerge v6.6.0 ('The Edge Of The In Between') built on Dec  1 2013 17:55:00
Writing library             : libebml v1.3.0 + libmatroska v1.4.1

Video
ID                          : 1
Format                      : AVC
Format/Info                 : Advanced Video Codec
Format profile              : High@L3.1
Format settings, CABAC      : Yes
Format settings, ReFrames   : 4 frames
Codec ID                    : V_MPEG4/ISO/AVC
Duration                    : 46mn 3s
Bit rate mode               : Constant
Bit rate                    : 5 688 Kbps
Nominal bit rate            : 6 000 Kbps
Width                       : 1 280 pixels
Height                      : 720 pixels
Display aspect ratio        : 16:9
Frame rate mode             : Constant
Frame rate                  : 25.000 fps
Standard                    : PAL
Color space                 : YUV
Chroma subsampling          : 4:2:0
Bit depth                   : 8 bits
Scan type                   : Progressive
Bits/(Pixel*Frame)          : 0.247
Stream size                 : 1.83 GiB (88%)
Language                    : English
Default                     : Yes
Forced                      : No
Color range                 : Limited
Color primaries             : BT.709
Transfer characteristics    : BT.709
Matrix coefficients         : BT.709

Audio #1
ID                          : 2
Format                      : AC-3
Format/Info                 : Audio Coding 3
Mode extension              : CM (complete main)
Format settings, Endianness : Big
Codec ID                    : A_AC3
Duration                    : 46mn 3s
Bit rate mode               : Constant
Bit rate                    : 224 Kbps
Channel(s)                  : 2 channels
Channel positions           : Front: L R
Sampling rate               : 48.0 KHz
Frame rate                  : 31.250 fps (1536 spf)
Compression mode            : Lossy
Stream size                 : 73.8 MiB (3%)
Title                       : DD2.0 AlexFilm
Language                    : Russian
Default                     : Yes
Forced                      : No

Audio #2
ID                          : 3
Format                      : AC-3
Format/Info                 : Audio Coding 3
Mode extension              : CM (complete main)
Format settings, Endianness : Big
Codec ID                    : A_AC3
Duration                    : 46mn 3s
Bit rate mode               : Constant
Bit rate                    : 192 Kbps
Channel(s)                  : 2 channels
Channel positions           : Front: L R
Sampling rate               : 48.0 KHz
Frame rate                  : 31.250 fps (1536 spf)
Compression mode            : Lossy
Stream size                 : 63.3 MiB (3%)
Title                       : DD2.0 Fox Crime
Language                    : Russian
Default                     : No
Forced                      : No

Audio #3
ID                          : 4
Format                      : AC-3
Format/Info                 : Audio Coding 3
Mode extension              : CM (complete main)
Format settings, Endianness : Big
Codec ID                    : A_AC3
Duration                    : 46mn 3s
Bit rate mode               : Constant
Bit rate                    : 224 Kbps
Channel(s)                  : 2 channels
Channel positions           : Front: L R
Sampling rate               : 48.0 KHz
Frame rate                  : 31.250 fps (1536 spf)
Compression mode            : Lossy
Stream size                 : 73.8 MiB (3%)
Title                       : DD2.0 Original
Language                    : English
Default                     : No
Forced                      : No

Text #1
ID                          : 5
Format                      : UTF-8
Codec ID                    : S_TEXT/UTF8
Codec ID/Info               : UTF-8 Plain Text
Title                       : AlexFilm
Language                    : Russian
Default                     : No
Forced                      : No

Text #2
ID                          : 6
Format                      : UTF-8
Codec ID                    : S_TEXT/UTF8
Codec ID/Info               : UTF-8 Plain Text
Title                       : Original
Language                    : English
Default                     : No
Forced                      : No

Код:

General
Unique ID                   : 176453354660661203775772013379276807694 (0x84BFAE1163EA6014A742D4109F409E0E)
Complete name               : C:\Users\tut\Desktop\Whitechapel\Whitechapel.S04\Whitechapel.s04e01.HDTV.720p.Rus.Eng.AlexFilm.mkv
Format                      : Matroska
Format version              : Version 2
File size                   : 1.21 GiB
Duration                    : 44mn 37s
Overall bit rate            : 3 887 Kbps
Movie name                  : Whitechapel 4x01 @ AlexFilm
Encoded date                : UTC 2013-10-23 19:39:44
Writing application         : mkvmerge v5.4.0 ('Piper') built on Mar 10 2012 13:34:39
Writing library             : libebml v1.2.3 + libmatroska v1.3.0

Video
ID                          : 1
Format                      : AVC
Format/Info                 : Advanced Video Codec
Format profile              : High@L4.1
Format settings, CABAC      : Yes
Format settings, ReFrames   : 9 frames
Codec ID                    : V_MPEG4/ISO/AVC
Duration                    : 44mn 37s
Bit rate                    : 3 500 Kbps
Width                       : 1 280 pixels
Height                      : 720 pixels
Display aspect ratio        : 16:9
Frame rate mode             : Constant
Frame rate                  : 25.000 fps
Color space                 : YUV
Chroma subsampling          : 4:2:0
Bit depth                   : 8 bits
Scan type                   : Progressive
Bits/(Pixel*Frame)          : 0.152
Stream size                 : 1.07 GiB (88%)
Writing library             : x264 core 138 r2358 9e941d1
Encoding settings           : cabac=1 / ref=9 / deblock=1:-3:-3 / analyse=0x3:0x113 / me=umh / subme=10 / psy=1 / psy_rd=1.00:0.20 / mixed_ref=1 / me_range=32 / chroma_me=1 / trellis=2 / 8x8dct=1 / cqm=0 / deadzone=21,11 / fast_pskip=0 / chroma_qp_offset=-3 / threads=6 / lookahead_threads=1 / sliced_threads=0 / nr=0 / decimate=1 / interlaced=0 / bluray_compat=0 / constrained_intra=0 / bframes=8 / b_pyramid=2 / b_adapt=2 / b_bias=0 / direct=3 / weightb=1 / open_gop=0 / weightp=2 / keyint=250 / keyint_min=25 / scenecut=40 / intra_refresh=0 / rc_lookahead=60 / rc=2pass / mbtree=1 / bitrate=3500 / ratetol=1.0 / qcomp=0.60 / qpmin=0 / qpmax=69 / qpstep=4 / cplxblur=20.0 / qblur=0.5 / ip_ratio=1.40 / aq=1:1.00
Language                    : English
Default                     : Yes
Forced                      : No

Audio #1
ID                          : 2
Format                      : AC-3
Format/Info                 : Audio Coding 3
Mode extension              : CM (complete main)
Format settings, Endianness : Big
Codec ID                    : A_AC3
Duration                    : 44mn 37s
Bit rate mode               : Constant
Bit rate                    : 192 Kbps
Channel(s)                  : 2 channels
Channel positions           : Front: L R
Sampling rate               : 48.0 KHz
Frame rate                  : 31.250 fps (1536 spf)
Compression mode            : Lossy
Stream size                 : 61.3 MiB (5%)
Title                       : DD2.0 AlexFilm
Language                    : Russian
Default                     : Yes
Forced                      : No

Audio #2
ID                          : 3
Format                      : AC-3
Format/Info                 : Audio Coding 3
Mode extension              : CM (complete main)
Format settings, Endianness : Big
Codec ID                    : A_AC3
Duration                    : 44mn 37s
Bit rate mode               : Constant
Bit rate                    : 192 Kbps
Channel(s)                  : 2 channels
Channel positions           : Front: L R
Sampling rate               : 48.0 KHz
Frame rate                  : 31.250 fps (1536 spf)
Compression mode            : Lossy
Stream size                 : 61.3 MiB (5%)
Title                       : DD2.0 Original
Language                    : English
Default                     : No
Forced                      : No


скриншот   скриншот   скриншот   скриншот   скриншот   скриншот  
pb.wtf



Скачать Современный потрошитель через торрент http://pic1.kartinco.top/images/10/7ofbt.jpg Скачать фильм Современный потрошитель через торрент бесплантно в хорошем качестве Описание: Джек Потрошитель - псевдоним, присвоенный так и оставшемуся неизвестным серийному убийце, который действовал в Уайтчепеле и ... 10 10 7
Info! Золотая раздача, скачанное не засчитывается.
Торрент: Зарегистрирован [2015-12-29 17:37] · скачан: 63 раз
Статус: √ проверено
Размер: 29.19 GB
Как cкачать? Как скачать Современный потрошитель через торрент | qTorrent

28-11-2019 20:33  

Отключить всю рекламу на сайте

    Дорогой пользователь! Огромная просьба, поблагодарите релизера, оцените раздачу и оставьте свои комментарий, если Вы скачали Современный потрошитель через торрент бесплатно! Внесите свою лепту в развитие PiratBit!
    Комментировать посты могут только пользователи прошедшие не сложную регистрацию
    Показать сообщения:    

    Современный потрошитель через торрент
    Скачать бесплатно Современный потрошитель
    Современный потрошитель скачать торрент
    Современный потрошитель смотреть онлайн
    Cкачать фильм Современный потрошитель бесплатно
    Современный потрошитель скачать торрент в хорошем качестве
    Современный потрошитель смотреть онлайн бесплатно в хорошем качестве


    Вы не можете начинать темы
    Вы не можете отвечать на сообщения
    Вы не можете редактировать свои сообщения
    Вы не можете удалять свои сообщения
    Вы не можете голосовать в опросах
    Вы не можете прикреплять файлы к сообщениям
    Вы можете скачивать файлы