Ссылка на приватное зеркало нашего сайта всего за 1$. Внимание количество ограничено!!!

2 сезон

iTunes

1 сезон

1

2 сезон

2 сезон

iTunes

1 сезон

RePack

30

Новинка

ВАЖНО

ИГРА 18+

pack

RePack

MK11
pack

Забери бонус

RePack

jed

!!Акция!!

Alien_Rage

RePack

fifa19

RePack

Assassins Creed: Odyssey

RePack

NEED FOR SPEED™ PAYBACK

4 сезон

9 сезон

Бесстыжие 9 сезон

Все сериалы

все сериалы на PB.wtf

RePack

FAR CRY 5
  

Беовульф / Beowulf: Return to the Shieldlands / Сезон: 1 / Серии 1-12 из 12 (Джон Ист) [2016, Фэнтези, Боевик, Драма, Приключения, WEB-DLRip 720p] MVO BaibaKo pb.wtf

Беовульф через торрент pb.wtf

Размер: 18.39 GB | Добавлен: 4 года 8 мес. назад | Торрент скачан:12 раз
Скачать  

29-12-2015 21:50 Беовульф Скачать торрент  

Беовульф / Beowulf: Return to the Shieldlands

---
---
---
---
---

Год выпуска: 2016
Страна: США
Жанр: Фэнтези, Боевик, Драма, Приключения
Продолжительность серии: ~ 00:45:00 x 12
Перевод: Профессиональный многоголосый BaibaKo
Реклама: В релизе присутствует реклама казино




Номер сезона: 1
Номер серии (эпизода): 1-12 из 12




Режиссер: Джон Ист, Джулиан Холмс, Марек Лоузи
Продюссер: Уилл Николсон, Джеймс Дормер, Стивен Смоллвуд
Сценарий: Джеймс Дормер, Гай Берт, Майкл А. Уокер




Премьера в мире: 3 января 2016









В ролях:

Кирсти Освальд, Пабло Вердехо, Дэвид Аджала, Джои Анса, Киран Бью, Лолита Чакрабарти, Уильям Хёрт, Алекс Прайс, Иан Палстон-Дэвис




Описание: Местом действия фэнтези-драмы станут полные опасности бескрайние земли Шилдленда, населенного не только людьми, но и всевозможными фантастическими существами. В центре сюжета окажется скандинавский воин-наемник Беовульф. Спустя многие годы, проведенные в скитаниях и сражениях, Беовульф возвращается в Хеорот, засвидетельствовать свое почтение к недавно умершему правителю и давнему другу Хродгару. Но когда на Хеорот нападает ужасное чудовище Грендель, Беовульфу не остается ничего другого, кроме как сразиться с чудовищем, завоевав благосклонность новой правительницы Таны и всего народа.




Качество: WEB-DL 720p
[Формат: MKV
Видео кодек: AVC
Аудио кодек: AC3
Видео: 1280х720, AVC, 25 fps, ~ 4 096 kbps
Аудио#1: Русский - AC3, 2 ch, 48 kHz, 384 kbps
Аудио#2: Английский - AC3, 2 ch, 48 kHz, 384 kbps
Субтитры: Нет


скриншот  скриншот  скриншот  скриншот  скриншот  


General
Unique ID : 224921976160849234735556544868465702200 (0xA936659B7E58C207D4FB2B78F9D2F538)
Format : Matroska
Format version : Version 2
File size : 1.54 GiB
Duration : 45mn 23s
Overall bit rate : 4 868 Kbps
Writing application : HandBrake 0.10.0 2014112200
Writing library : Lavf55.12.0

Video #1
ID : 1
Format : AVC
Format/Info : Advanced Video Codec
Format profile : High@L4.1
Format settings, CABAC : Yes
Format settings, ReFrames : 4 frames
Codec ID : V_MPEG4/ISO/AVC
Duration : 45mn 23s
Bit rate : 4 096 Kbps
Width : 1 280 pixels
Height : 720 pixels
Display aspect ratio : 16:9
Frame rate mode : Constant
Frame rate : 25.000 fps
Color space : YUV
Chroma subsampling : 4:2:0
Bit depth : 8 bits
Scan type : Progressive
Bits/(Pixel*Frame) : 0.178
Stream size : 1.27 GiB (82%)
Writing library : x264 core 142 r2479 dd79a61
Encoding settings : cabac=1 / ref=3 / deblock=1:0:0 / analyse=0x3:0x113 / me=hex / subme=7 / psy=1 / psy_rd=1.00:0.00 / mixed_ref=1 / me_range=16 / chroma_me=1 / trellis=1 / 8x8dct=1 / cqm=0 / deadzone=21,11 / fast_pskip=1 / chroma_qp_offset=-2 / threads=6 / lookahead_threads=1 / sliced_threads=0 / nr=0 / decimate=1 / interlaced=0 / bluray_compat=0 / constrained_intra=0 / bframes=3 / b_pyramid=2 / b_adapt=1 / b_bias=0 / direct=1 / weightb=1 / open_gop=0 / weightp=2 / keyint=250 / keyint_min=25 / scenecut=40 / intra_refresh=0 / rc_lookahead=40 / rc=2pass / mbtree=1 / bitrate=4096 / ratetol=1.0 / qcomp=0.60 / qpmin=0 / qpmax=69 / qpstep=4 / cplxblur=20.0 / qblur=0.5 / vbv_maxrate=62500 / vbv_bufsize=78125 / nal_hrd=none / filler=0 / ip_ratio=1.40 / aq=1:1.00
Default : Yes
Forced : No
Color range : Limited
Color primaries : BT.709
Transfer characteristics : BT.709
Matrix coefficients : BT.709

Audio #2
ID : 2
Format : AC-3
Format/Info : Audio Coding 3
Mode extension : CM (complete main)
Format settings, Endianness : Big
Codec ID : A_AC3
Duration : 45mn 23s
Bit rate mode : Constant
Bit rate : 384 Kbps
Channel(s) : 2 channels
Channel positions : Front: L R
Sampling rate : 48.0 KHz
Compression mode : Lossy
Stream size : 125 MiB (8%)
Title : Stereo
Language : Russian
Default : Yes
Forced : No

Audio #3
ID : 3
Format : AC-3
Format/Info : Audio Coding 3
Mode extension : CM (complete main)
Format settings, Endianness : Big
Codec ID : A_AC3
Duration : 45mn 23s
Bit rate mode : Constant
Bit rate : 384 Kbps
Channel(s) : 2 channels
Channel positions : Front: L R
Sampling rate : 48.0 KHz
Compression mode : Lossy
Stream size : 125 MiB (8%)
Title : Stereo
Language : English
Default : No
Forced : No
Внимание! Раздача ведётся путём добавления новых серий; при каждом добавлении создётся новый торрент. Чтобы начать докачку новой серии, пользователям необходимо сделать следующее:

1. Остановить скачивание,
2. Удалить старый торрент у себя из клиента (старые серии удалять не надо),
3. Скачать новый торрент и запустить его у себя в клиенте вместо старого, при этом указать клиенту путь в старую папку куда и должно происходить скачивание новых серий.

Ваш клиент при этом должен произвести хеширование (проверку) старой папки (если не производит сам - помогите ему сделать это), и будет докачивать только те серии которых у вас ещё нет. Старые серии при этом не удаляются, а продолжают раздаваться!

Eсли вы уже удалили старые серии, то предотвратить повторную закачку старых серий можно, отжав галочку в соответсвующих местах при запуске нового торрента. По возможности, желательно не удалять старые серии как можно дольше чтобы релизёр не столько продолжал раздавать старые серии, а смог сконцентрироваться на новых.
_Добавлена 12 серия.. (24.03.2016) Финал сезона.. Просьба перекачать торрент файл..
_

pb.wtf



Скачать Беовульф через торрент http://pic.kartinco.top/images/11/dmw1n.jpg Скачать фильм Беовульф через торрент бесплантно в хорошем качестве Описание: Местом действия фэнтези-драмы станут полные опасности бескрайние земли Шилдленда, населенного не только людьми, но и ... 9.3 10 15
Info! Серебряная раздача, засчитывается только 50% скачанного.
Торрент: Зарегистрирован [2016-03-24 00:04] · скачан: 12 раз
Статус: √ проверено
Размер: 18.39 GB
Как cкачать? Как скачать Беовульф через торрент | qTorrent

% Раздел Тема Автор DL S | L
Зарубежные сериалы [ 22.57 GB ] Беовульф / Beowulf: Return to the Shieldlands / Сезон: 1 / Серии 1-12 из 12 [2016 WEB-DLRip 1080p] MVO BaibaKo MicroCharmelle Скачать
1 | 0
Зарубежные сериалы [ 7.14 GB ] Беовульф / Beowulf: Return to the Shieldlands / Сезон: 1 / Серии 1-12 из 12 [2016 WEB-DLRip] MVO BaibaKo MicroCharmelle Скачать
1 | 0


Последний раз редактировалось: MicroCharmelle (2016-03-28 00:19), всего редактировалось 15 раз(а)

28-11-2019 20:33  

Отключить всю рекламу на сайте

29-12-2015 22:02 Беовульф Скачать торрент  

График выхода серий есть?pb.wtf



14-01-2016 17:20 Беовульф Скачать торрент  

чую, на второй сезон не продлят...хотя, мир сошел с ума, порожняк(или пара..?) нынче в моде.
Раздающему спасибо!pb.wtf



24-01-2016 19:12 Беовульф Скачать торрент  

Поросенок классный - надо брать - не смог пройти мимо pb.wtf



12-02-2016 16:42 Беовульф Скачать торрент  

Задолбали эти политкорректности. Негр- викинг?pb.wtf



03-03-2016 03:32 Беовульф Скачать торрент  

nattybampo писал(а):

Задолбали эти политкорректности. Негр- викинг?

Толи еще будет. Скоро на экранах: Викинги-гомосексуалисты, однополые браки среди викингов и так далее.pb.wtf



16-03-2016 21:38 Беовульф Скачать торрент  

nattybampo писал(а):

Задолбали эти политкорректности. Негр- викинг?

pb.wtf



16-03-2016 23:14 Беовульф Скачать торрент  

Фильм был не плох, а вот это, зачем было снимать...pb.wtf



20-03-2016 14:50 Беовульф Скачать торрент  

Risk писал(а):

nattybampo писал(а):

Задолбали эти политкорректности. Негр- викинг?

Толи еще будет. Скоро на экранах: Викинги-гомосексуалисты, однополые браки среди викингов и так далее.

игра престолов почти все дырявые pb.wtf



    Дорогой пользователь! Огромная просьба, поблагодарите релизера, оцените раздачу и оставьте свои комментарий, если Вы скачали Беовульф через торрент бесплатно! Внесите свою лепту в развитие PiratBit!
    Комментировать посты могут только пользователи прошедшие не сложную регистрацию
    Показать сообщения:    

    Беовульф через торрент
    Скачать бесплатно Беовульф
    Беовульф скачать торрент
    Беовульф смотреть онлайн
    Cкачать фильм Беовульф бесплатно
    Беовульф скачать торрент в хорошем качестве
    Беовульф смотреть онлайн бесплатно в хорошем качестве


    Вы не можете начинать темы
    Вы не можете отвечать на сообщения
    Вы не можете редактировать свои сообщения
    Вы не можете удалять свои сообщения
    Вы не можете голосовать в опросах
    Вы не можете прикреплять файлы к сообщениям
    Вы можете скачивать файлы