Ссылка на приватное зеркало нашего сайта всего за 1$. Внимание количество ограничено!!!

2 сезон

iTunes

1 сезон

1

2 сезон

2 сезон

iTunes

1 сезон

RePack

30

Ultimate

ВАЖНО

ИГРА 18+

pack

RePack

MK11
pack

Забери бонус

RePack

jed

!!Акция!!

Alien_Rage

RePack

fifa19

RePack

Assassins Creed: Odyssey

RePack

NEED FOR SPEED™ PAYBACK

4 сезон

9 сезон

Бесстыжие 9 сезон

Все сериалы

все сериалы на PB.wtf

RePack

FAR CRY 5
  

Он никогда не умирал / He Never Died (Джейсон Кравчик / Jason Krawczyk) [2015, США, Канада, ужасы, триллер, драма, WEB-DL 720p, Любительский многоголосый закадровый) [студия "Paradox" & "Recent Films"] + ENG pb.wtf

Он никогда не умирал через торрент pb.wtf

Размер: 3.25 GB | Добавлен: 4 года 11 мес. назад | Торрент скачан:215 раз
Скачать  

30-12-2015 02:10 Он никогда не умирал Скачать торрент  

Он никогда не умирал / He Never Died
«Пули. Кровь. Бинго »


  • Год выпуска: 2015
  • Страна: США, Канада
  • Жанр: ужасы, триллер, драма, комедия
  • Продолжительность: 01:37:16
  • Перевод: Любительский многоголосый закадровый [студия "Paradox" & "Recent Films"]

  • Режиссер: Джейсон Кравчик / Jason Krawczyk
  • В ролях:

    Бу Бу Стюарт (Jeremy), Генри Роллинз (Jack), Стивен Огг (Alex), Джордан Тодоси (Andrea), Джеймс Кейд (Short), Майкл Крэм (Tim), Чантал Крэйг (Bar Patron), Дэн Петронижевич (Steve), Тамара Альмейда (Paramedic), Кейт Гринхаус (Cara), МакДональд (Teenager #1), Уолтер Алза (Derrick)


  • Кровь необходима герою для того, чтобы продлить свое существование. Однако долгая жизнь имеет свои недостатки, главный из них – скука, от которой не спасают ни крепкий здоровый сон, ни просмотр телешоу, ни участие в лотереях. Так стоит ли такая жизнь того, чтобы продолжать ее? Кажется, герой и сам хотел бы узнать ответ на этот вопрос. Но вместо этого Джек вынужден решать целый ворох проблем, свалившихся на него с появлением девушки по имени Андреа, утверждающей, что он – ее отец.
  • Рейтинг:



  • Качество: WEB-DL 720p
  • Формат: :MKV
  • Видео кодек: AVC
  • Аудио кодек: AC3
  • Видео: 1280x536 (2.40:1), 3914 kbps, 23,976 fps, 0,238 bpp
  • Аудио №1: русский / 2.0 / 48 kHz / 384 kbps / 16 bit |[студия "Paradox" & "Recent Films"]|
    Аудио №2: английский / 5.1 / 48 kHz / 384 kbps / 16 bit
  • Релиз от: GEKADOL

    Код:

    General
    Unique ID                                : 234319029531361298400840350926816369937 (0xB048341BF2266B8AA2F30ACE630F5D11)
    Complete name                            : G:\On.H1kAgDa.NE.POm1RALL.2015.P.WEB-DL.72OP.mkv
    Format                                   : Matroska
    Format version                           : Version 2
    File size                                : 3.25 GiB
    Duration                                 : 1h 37mn
    Overall bit rate                         : 4 777 Kbps
    Movie name                               : He.Never.Died.2015.1080p.WEB-DL.x264-DAWGS
    Encoded date                             : UTC 2015-12-29 18:42:03
    Writing application                      : mkvmerge v8.3.0 ('Over the Horizon') 64bit
    Writing library                          : libebml v1.3.1 + libmatroska v1.4.2
    DURATION                                 : 01:37:15.955000000
    NUMBER_OF_FRAMES                         : 139923
    NUMBER_OF_BYTES                          : 2923321653
    _STATISTICS_WRITING_APP                  : mkvmerge v8.3.0 ('Over the Horizon') 64bit
    _STATISTICS_WRITING_DATE_UTC             : 2015-12-29 18:42:03
    _STATISTICS_TAGS                         : BPS DURATION NUMBER_OF_FRAMES NUMBER_OF_BYTES

    Video
    ID                                       : 1
    Format                                   : AVC
    Format/Info                              : Advanced Video Codec
    Format profile                           : High@L4.1
    Format settings, CABAC                   : Yes
    Format settings, ReFrames                : 4 frames
    Codec ID                                 : V_MPEG4/ISO/AVC
    Duration                                 : 1h 37mn
    Bit rate                                 : 3 914 Kbps
    Width                                    : 1 280 pixels
    Height                                   : 536 pixels
    Display aspect ratio                     : 2.40:1
    Frame rate                               : 23.976 fps
    Color space                              : YUV
    Chroma subsampling                       : 4:2:0
    Bit depth                                : 8 bits
    Scan type                                : Progressive
    Bits/(Pixel*Frame)                       : 0.238
    Stream size                              : 2.66 GiB (82%)
    Default                                  : Yes
    Forced                                   : No

    Audio #1
    ID                                       : 2
    Format                                   : AC-3
    Format/Info                              : Audio Coding 3
    Mode extension                           : CM (complete main)
    Codec ID                                 : A_AC3
    Duration                                 : 1h 37mn
    Bit rate mode                            : Constant
    Bit rate                                 : 384 Kbps
    Channel(s)                               : 2 channels
    Channel positions                        : Front: L R
    Sampling rate                            : 48.0 KHz
    Bit depth                                : 16 bits
    Compression mode                         : Lossy
    Stream size                              : 267 MiB (8%)
    Language                                 : Russian
    Default                                  : Yes
    Forced                                   : No

    Audio #2
    ID                                       : 3
    Format                                   : AC-3
    Format/Info                              : Audio Coding 3
    Mode extension                           : CM (complete main)
    Codec ID                                 : A_AC3
    Duration                                 : 1h 37mn
    Bit rate mode                            : Constant
    Bit rate                                 : 384 Kbps
    Channel(s)                               : 6 channels
    Channel positions                        : Front: L C R, Side: L R, LFE
    Sampling rate                            : 48.0 KHz
    Bit depth                                : 16 bits
    Compression mode                         : Lossy
    Stream size                              : 267 MiB (8%)
    Language                                 : English
    Default                                  : No
    Forced                                   : No




    Скриншоты:



    pb.wtf



  • Скачать Он никогда не умирал через торрент http://i76.fastpic.ru/big/2015/1230/92/b6fa3f6a59658d7670536155e0712a92.jpg Скачать фильм Он никогда не умирал через торрент бесплантно в хорошем качестве qw.png Кровь необходима герою для того, чтобы продлить свое существование. Однако долгая жизнь имеет свои недостатки, главный из них – ... 8.7 10 12
    Торрент: Зарегистрирован [2015-12-30 02:10] · скачан: 215 раз
    Статус: T временная
    Размер: 3.25 GB
    Как cкачать? Как скачать Он никогда не умирал через торрент | qTorrent

    % Раздел Тема Автор DL S | L
    T Фильмы (WEB-DL 720p, 1080p) [ 3.54 GB ] Он никогда не умирал / He Never Died [2015 WEB-DL 1080p Любительский многоголосый закадровый) [студия "Paradox" & "Recent Films"] + ENG GEKADOL Скачать
    1 | 0

    28-11-2019 20:33  

    Отключить всю рекламу на сайте

    30-12-2015 17:40 Он никогда не умирал Скачать торрент  

    какой бессмысленный и беспощадный фильмpb.wtf



    01-01-2016 06:29 Он никогда не умирал Скачать торрент  

    отличное кино-лежал долго посмотрел на нг-впечатлил сделал пару кубов pb.wtf



    16-07-2016 08:35 Он никогда не умирал Скачать торрент  

    шлак полнейшийpb.wtf



      Дорогой пользователь! Огромная просьба, поблагодарите релизера, оцените раздачу и оставьте свои комментарий, если Вы скачали Он никогда не умирал через торрент бесплатно! Внесите свою лепту в развитие PiratBit!
      Комментировать посты могут только пользователи прошедшие не сложную регистрацию
      Показать сообщения:    

      Он никогда не умирал через торрент
      Скачать бесплатно Он никогда не умирал
      Он никогда не умирал скачать торрент
      Он никогда не умирал смотреть онлайн
      Cкачать фильм Он никогда не умирал бесплатно
      Он никогда не умирал скачать торрент в хорошем качестве
      Он никогда не умирал смотреть онлайн бесплатно в хорошем качестве


      Вы не можете начинать темы
      Вы не можете отвечать на сообщения
      Вы не можете редактировать свои сообщения
      Вы не можете удалять свои сообщения
      Вы не можете голосовать в опросах
      Вы не можете прикреплять файлы к сообщениям
      Вы можете скачивать файлы