новый адрес
Мега распродажа FORZA HORIZON 4 ULTIMATE+ВСЕ DLC+ОНЛАЙН всего за 499р. 349 руб. (супер цена). Внимание количество ограничено!!!

iTunes

1+1

iTunes

мы

iTunes

1

iTunes

Чернобыль

iTunes

Ральф против интернета

Лицензия

ПШазам

Лицензия

Игра престолов

Лицензия

30
pack

ВАЖНО

!!Акция!!

Alien_RageХит недели

RePack

Resident Evil 21

ИГРА 18+

pack

RePack

Metro:Exodus

!!Акция!!

Alien_Rage

RePack

fifa19

RePack

Assassins Creed: Odyssey

RePack

NEED FOR SPEED™ PAYBACK

3 сезон

9 сезон

Бесстыжие 9 сезон

Все сериалы

все сериалы на PB.wtf

RePack

FAR CRY 5
Ребята, катастрофически не хватает 1900р. для оплаты серверов за Октябрь (всвязи с блокировками трафик упал в 3 раза), 1-2р., выручайте.
  

На дне (Андрей Фролов) [1952, драма, DVDRip от AVP Studio] pb.wtf

На дне через торрент pb.wtf

Размер: 2.18 GB | Добавлен: 3 года 10 мес. назад | Торрент скачан:25 раз
Скачать  

30-12-2015 09:38 На дне Скачать торрент  

На дне
Страна: СССР
Производство: Мосфильм

Жанр: драма
Год выпуска: 1952
Продолжительность: 02:31:49 (01:17:46 + 01:14:03)

Перевод: Не требуется
Cубтитры: нет
Оригинальная аудиодорожка: русский

Режиссер: Андрей Фролов

В ролях:
Иосиф Раевский, Фаина Шевченко, Кира Головко, Владимир Готовцев, Сергей Яров, Алексей Жильцов, Нина Тихомирова, Алла Тарасова, Анна Дмоховская, Сергей Блинников, Владимир Ершов, Павел Массальский, Алексей Грибов, Василий Орлов, Григорий Конский, Николай Хощанов, Владимир Баталов...
Полный список актёров

Описание:
Фильм-спектакль, драма по одноименной пьесе М.Горького.
Постановка МХАТ им. М.Горького. Режиссеры-постановщики: К.С.Станиславский, В.И.Немирович-Данченко. Художник — Владимир Симов.
Мрачно и уныло протекают дни обитателей одной из ночлежек - пристанища обездоленных и униженных. Но в людях, чье существование служит страшным обвинением обществу, их породившему, сохранилось человеческое достоинство. Зреет протест против власти равнодушных. В мрачной атмосфере ночлежки звучит вдохновенный гимн Человеку, его силе и красоте.

Источник: DVD9 R5
Качество видео: DVDRip
Формат видео: AVI

Видео: 688x512 (4:3), 25 fps, XviD ~ 1852 kbps avg, 0.210 bit/pixel
Аудио: 48 kHz, Dolby Digital AC3 2.0, 192 kbps

Раздача от:
Общее
Полное имя : Na.dne.1952.DVDRip_[New-team]_by_AVP_Studio\01.avi
Формат : AVI
Формат/Информация : Audio Video Interleave
Размер файла : 1,12 Гбайт
Продолжительность : 1 ч. 17 м.
Общий поток : 2054 Кбит/сек
Программа кодирования : VirtualDubMod 1.5.10.3 | www.virtualdub-fr.org || (build 2550/release)
Библиотека кодирования : VirtualDubMod build 2550/release

Видео
Идентификатор : 0
Формат : MPEG-4 Visual
Профиль формата : Advanced Simple@L5
Параметр BVOP формата : 1
Параметр QPel формата : Нет
Параметр GMC формата : Без точки перехода
Параметр матрицы формата : Выборочная
Идентификатор кодека : XVID
Идентификатор кодека/Подсказка : XviD
Продолжительность : 1 ч. 17 м.
Битрейт : 1852 Кбит/сек
Ширина : 688 пикселей
Высота : 512 пикселей
Соотношение сторон : 4:3
Частота кадров : 25,000 кадров/сек
Цветовое пространство : YUV
Субдискретизация насыщенности : 4:2:0
Битовая глубина : 8 бит
Тип развёртки : Прогрессивная
Метод сжатия : С потерями
Бит/(Пиксели*Кадры) : 0.210
Размер потока : 1,01 Гбайт (90%)
Библиотека кодирования : XviD 1.2.1 (UTC 2008-12-04)

Аудио
Идентификатор : 1
Формат : AC-3
Формат/Информация : Audio Coding 3
Расширение режима : CM (complete main)
Параметр Endianness формата : Big
Идентификатор кодека : 2000
Продолжительность : 1 ч. 17 м.
Вид битрейта : Постоянный
Битрейт : 192 Кбит/сек
Каналы : 2 канала
Расположение каналов : Front: L R
Частота : 48,0 КГц
Метод сжатия : С потерями
Размер потока : 107 Мбайт (9%)
Выравнивание : Разделение по промежуткам
Продолжительность промежутка : 40 мс. (1,00 видеокадр)
Время предзагрузки промежутка : 500 мс
pb.wtf



Скачать На дне через торрент http://s018.radikal.ru/i511/1512/a5/df5dd1fb06a6.png Скачать фильм На дне через торрент бесплантно в хорошем качестве Описание:Фильм-спектакль, драма по одноименной пьесе М.Горького.Постановка МХАТ им. М.Горького. Режиссеры-постановщики: К.С.Станиславский, ... 5 10 1
Info! Серебряная раздача, засчитывается только 50% скачанного.
Торрент: Зарегистрирован [2015-12-30 09:38] · скачан: 25 раз
Статус: √ проверено
Размер: 2.18 GB
Как cкачать? Как скачать На дне через торрент | qTorrent

% Раздел Тема Автор DL S | L
Аниме [HD 720p, 1080p] [ 17.16 GB ] Дневник будущего / Mirai Nikki [2011 BDRip 720p DVO] Sylar Скачать
3 | 2
Аниме [DVDrip, WEB-DLRip, HDrip] [ 9.22 GB ] Дневник будущего / Mirai Nikki [01 - 26 из 26] [2011 720p WEB-DLRip Любительский ] Sylar Скачать
1 | 0
Порно фильмы без сюжета [ 1 GB ] Дневник Нимфоманки / Tiffany Le Journal d'une Nympho [2013 All Sex Straight Oral Hardcore DVDRip Оригинал] 19alexei87 Скачать
1 | 0
Арт-хаус и авторское кино [ 7.48 GB ] Пена дней / Lecume des jours [2013 DVD9] R5 voovaz Скачать
1 | 0
Гонзо [ 787 MB ] Дневники приходящей няни 12 / Babysitter Diaries 12 [2013 All Sex Oral Anal Gonzo Legal Teen DVDRip-AVC Оригинал] sheker187 Скачать
1 | 0
Политика, религия [ 955 MB ] Монастыри в поднебесье [1999 документальный DVDRip Оригинал] metanoia Скачать
1 | 0
Документальные фильмы и телепередачи [ 472 MB ] Построение электронного Вавилона как реальность наших дней [2013 документальный SATRip Оригинал] metanoia Скачать
1 | 0


>> Регистрируемся здесь <<






Отзывы и комментарии о схеме читаем и пишем здесь: ---> Отзывы и комментарии о схеме

Новые благодарочки в телеграм довольных пользователей:
скриншот   скриншот   скриншот   скриншот   скриншот
    Дорогой пользователь! Огромная просьба, поблагодарите релизера, оцените раздачу и оставьте свои комментарий, если Вы скачали На дне через торрент бесплатно! Внесите свою лепту в развитие PiratBit!
    Комментировать посты могут только пользователи прошедшие не сложную регистрацию
    Показать сообщения:    

    На дне через торрент
    Скачать бесплатно На дне
    На дне скачать торрент
    На дне смотреть онлайн
    Cкачать фильм На дне бесплатно
    На дне скачать торрент в хорошем качестве
    На дне смотреть онлайн бесплатно в хорошем качестве


    Вы не можете начинать темы
    Вы не можете отвечать на сообщения
    Вы не можете редактировать свои сообщения
    Вы не можете удалять свои сообщения
    Вы не можете голосовать в опросах
    Вы не можете прикреплять файлы к сообщениям
    Вы можете скачивать файлы