Ссылка на приватное зеркало нашего сайта всего за 1$. Внимание количество ограничено!!!

2 сезон

iTunes

1 сезон

1

iTunes

iTunes

iTunes

1 сезон

RePack

30

ИГРА 18+

pack

ВАЖНО

!!Акция!!

Alien_RageХит недели

RePack

MK11
pack

Забери бонус

RePack

jed

!!Акция!!

Alien_Rage

RePack

fifa19

RePack

Assassins Creed: Odyssey

RePack

NEED FOR SPEED™ PAYBACK

4 сезон

9 сезон

Бесстыжие 9 сезон

Все сериалы

все сериалы на PB.wtf

RePack

FAR CRY 5
  

Умереть молодой / Too Young to Die? (Роберт Марковиц) [1990, драма, криминал, BDRip 1080p by msltel] DVO pb.wtf

Умереть молодой через торрент pb.wtf

Размер: 13.16 GB | Добавлен: 4 года 9 мес. назад | Торрент скачан:78 раз
Скачать  

30-12-2015 09:48 Умереть молодой Скачать торрент  

Название: Умереть молодой
Оригинальное название: Too Young to Die?
Год выпуска: 1990
Страна: США
Жанр: драма, криминал
Продолжительность: 01:31:50
Перевод: профессиональный двухголосый

Режиссёр: Роберт Марковиц

В ролях: Джульетт Льюис, Брэд Питт, Майкл Такер, Алан Фьюдж, Эмили Лонгстрет, Лори О’Брайэн, Том Эверетт, Майкл О’Киф, Дин Эбстон, Аннабелл Уиник, Хэнк Стоун

Описание: В поисках американской мечты Аманда Брэдли приезжает в южный городок, где оказывается в руках проходимца Билли. Он устраивает Аманду на работу танцовщицей в ночное заведение. И началось: секс, наркотики, проституция. Сержант Майк, разглядевший за толстым слоем грима и экстравагантной внешностью хрупкую душу молодой женщины, пытается вытащить её со дна. Но этот роман никак не входит в планы Билли. Во время «пьяной» разборки Майк оказывается смертельно ранен. Отпечатки пальцев на ноже принадлежат Аманде. Суд настаивает на вынесении смертного приговора. Но она так молода, чтобы умереть...



Качество: BDRip 1080p Сравнение с исходником
Формат: MKV
Видео: MPEG-4 AVC, 17.1 Mбит/с, 1920x1080, 23,976 кадра/с
Аудио 1: русский, DTS, 1509 kbps, 2 ch, 48 kHz [профессиональный двухголосый]
Аудио 2: английский, DTS, 1509 kbps, 2 ch, 48 kHz [оригинал]
Субтитры: русские
Общее
Уникальный идентификатор : 189207248835096351917856341810194692390 (0x8E57FD99726821E1B868B0C2C98C3926)
Полное имя : D:\Video\Умереть молодой.1990.BDRip.1080p.mkv
Формат : Matroska
Версия формата : Version 4 / Version 2
Размер файла : 13,2 Гбайт
Продолжительность : 1 ч. 31 м.
Общий поток : 20,5 Мбит/сек
Дата кодирования : UTC 2015-12-30 08:14:51
Программа кодирования : mkvmerge v8.2.0 ('World of Adventure') 64bit
Библиотека кодирования : libebml v1.3.1 + libmatroska v1.4.2
DURATION : 01:31:49.782000000
NUMBER_OF_FRAMES : 516542
NUMBER_OF_BYTES : 1039282848
_STATISTICS_WRITING_APP : mkvmerge v8.2.0 ('World of Adventure') 64bit
_STATISTICS_WRITING_DATE_UTC : 2015-12-30 08:14:51
_STATISTICS_TAGS : BPS DURATION NUMBER_OF_FRAMES NUMBER_OF_BYTES

Видео
Идентификатор : 1
Формат : AVC
Формат/Информация : Advanced Video Codec
Профиль формата : High@L4.1
Параметр CABAC формата : Да
Параметр ReFrames формата : 4 кадра
Идентификатор кодека : V_MPEG4/ISO/AVC
Продолжительность : 1 ч. 31 м.
Битрейт : 17,1 Мбит/сек
Ширина : 1920 пикселей
Высота : 1080 пикселей
Соотношение сторон : 16:9
Режим частоты кадров : Постоянный
Частота кадров : 23,976 кадра/сек
Цветовое пространство : YUV
Субдискретизация насыщенности : 4:2:0
Битовая глубина : 8 бит
Тип развёртки : Прогрессивная
Бит/(Пиксели*Кадры) : 0.344
Размер потока : 11,0 Гбайт (83%)
Библиотека кодирования : x264 core 146 r2538 121396c
Настройки программы : cabac=1 / ref=4 / deblock=1:-3:-3 / analyse=0x3:0x113 / me=umh / subme=10 / psy=1 / psy_rd=1.00:0.15 / mixed_ref=1 / me_range=32 / chroma_me=1 / trellis=2 / 8x8dct=1 / cqm=0 / deadzone=21,11 / fast_pskip=1 / chroma_qp_offset=-3 / threads=6 / lookahead_threads=1 / sliced_threads=0 / nr=0 / decimate=1 / interlaced=0 / bluray_compat=0 / constrained_intra=0 / bframes=11 / b_pyramid=2 / b_adapt=2 / b_bias=0 / direct=1 / weightb=1 / open_gop=0 / weightp=2 / keyint=230 / keyint_min=23 / scenecut=40 / intra_refresh=0 / rc_lookahead=40 / rc=crf / mbtree=0 / crf=18.9 / qcomp=0.60 / qpmin=0 / qpmax=69 / qpstep=4 / vbv_maxrate=40000 / vbv_bufsize=50000 / crf_max=0.0 / nal_hrd=none / filler=0 / ip_ratio=1.40 / pb_ratio=1.30 / aq=1:1.00
Язык : English
Default : Да
Forced : Нет
DURATION : 01:31:50.255000000
NUMBER_OF_FRAMES : 132114
NUMBER_OF_BYTES : 12048923373
_STATISTICS_WRITING_APP : mkvmerge v8.2.0 ('World of Adventure') 64bit
_STATISTICS_WRITING_DATE_UTC : 2015-12-30 08:14:51
_STATISTICS_TAGS : BPS DURATION NUMBER_OF_FRAMES NUMBER_OF_BYTES

Аудио #1
Идентификатор : 2
Формат : DTS
Формат/Информация : Digital Theater Systems
Режим : 16
Параметр Endianness формата : Big
Идентификатор кодека : A_DTS
Продолжительность : 1 ч. 31 м.
Вид битрейта : Постоянный
Битрейт : 1509 Кбит/сек
Каналы : 2 канала
Расположение каналов : Front: L R
Частота : 48,0 КГц
Битовая глубина : 24 бит
Метод сжатия : С потерями
Размер потока : 991 Мбайт (7%)
Заголовок : DVO (CP Digital)
Язык : Russian
Default : Да
Forced : Нет

Аудио #2
Идентификатор : 3
Формат : DTS
Формат/Информация : Digital Theater Systems
Режим : 16
Параметр Endianness формата : Big
Идентификатор кодека : A_DTS
Продолжительность : 1 ч. 31 м.
Вид битрейта : Постоянный
Битрейт : 1509 Кбит/сек
Каналы : 2 канала
Расположение каналов : Front: L R
Частота : 48,0 КГц
Битовая глубина : 24 бит
Метод сжатия : С потерями
Размер потока : 991 Мбайт (7%)
Заголовок : Original
Язык : English
Default : Нет
Forced : Нет

Текст
Идентификатор : 4
Формат : UTF-8
Идентификатор кодека : S_TEXT/UTF8
Идентификатор кодека/Информация : UTF-8 Plain Text
Заголовок : русский
Язык : Russian
Default : Нет
Forced : Нет
pb.wtf



Скачать Умереть молодой через торрент http://s020.radikal.ru/i714/1512/6e/40d3a87b1069.png Скачать фильм Умереть молодой через торрент бесплантно в хорошем качестве Описание: В поисках американской мечты Аманда Брэдли приезжает в южный городок, где оказывается в руках проходимца Билли. Он устраивает ... 10 10 3
Торрент: Зарегистрирован [2015-12-30 09:48] · скачан: 78 раз
Статус: √ проверено
Размер: 13.16 GB
Как cкачать? Как скачать Умереть молодой через торрент | qTorrent

28-11-2019 20:33  

Отключить всю рекламу на сайте

    Дорогой пользователь! Огромная просьба, поблагодарите релизера, оцените раздачу и оставьте свои комментарий, если Вы скачали Умереть молодой через торрент бесплатно! Внесите свою лепту в развитие PiratBit!
    Комментировать посты могут только пользователи прошедшие не сложную регистрацию
    Показать сообщения:    

    Умереть молодой через торрент
    Скачать бесплатно Умереть молодой
    Умереть молодой скачать торрент
    Умереть молодой смотреть онлайн
    Cкачать фильм Умереть молодой бесплатно
    Умереть молодой скачать торрент в хорошем качестве
    Умереть молодой смотреть онлайн бесплатно в хорошем качестве


    Вы не можете начинать темы
    Вы не можете отвечать на сообщения
    Вы не можете редактировать свои сообщения
    Вы не можете удалять свои сообщения
    Вы не можете голосовать в опросах
    Вы не можете прикреплять файлы к сообщениям
    Вы можете скачивать файлы