Ссылка на приватное зеркало всего за 1$. Внимание количество ограничено!!!

iTunes

1+1

iTunes

мы

WEB-DL

1

iTunes

Чернобыль

iTunes

Ральф против интернета

Лицензия

ПШазам

Лицензия

Оно 2

Лицензия

30
pack

Вам бонус

ВАЖНО

!!Акция!!

Alien_RageХит недели

RePack

Resident Evil 21

ИГРА 18+

pack

RePack

jed

!!Акция!!

Alien_Rage

RePack

fifa19

RePack

Assassins Creed: Odyssey

RePack

NEED FOR SPEED™ PAYBACK

3 сезон

9 сезон

Бесстыжие 9 сезон

Все сериалы

все сериалы на PB.wtf

RePack

FAR CRY 5
Ребята, катастрофически не хватает 1900р. для оплаты серверов за Октябрь (всвязи с блокировками трафик упал в 3 раза), 1-2р., выручайте.
  

Зверобой (Андрей Ростоцкий) [1990, Приключения, DVDRip] pb.wtf

Зверобой через торрент pb.wtf

Размер: 1.47 GB | Добавлен: 3 года 11 мес. назад | Торрент скачан:12 раз
Скачать  

30-12-2015 15:39 Зверобой Скачать торрент  


ЗВЕРОБОЙ




Год выпуска: 1990
Страна: СССР
Жанр: Приключения
Продолжительность: 01:11:38 + 01:11:56




Режиссер: Андрей Ростоцкий
Сценарий: Александр Жилин, Джеймс Фенимор Купер
Оператор: Борис Дунаев
Композитор: Лора Квинт
Художник: Геннадий Бабуров, Наталья Катаева
Монтаж: Татьяна Аксенова, Любовь Панова









В ролях:

Андрей Хворов, Павел Абдалов, Ольга Машная, Елена Кондулайнен, Эдуард Мурашов, Георгий Пицхелаури, Владимир Топцов, Владимир Пивоваров, Борис Миронов, Николай Карпов, Владимир Епископосян, Варвара Никитина, Всеволод Хабаров, Наталья Табакова




Описание: Пока французы и англичане сражались за североамериканские территории, индейские племена гуронов и делаваров также дрались между собой за свои родные земли.. И в этой войне благородной и отважный Чингачгук, один из лучших воинов-делаваров, проявлял чудеса героизма..




Качество: DVDRip
Формат: AVI
Видео кодек: XviD
Аудио кодек: AC3
Видео: 720x544, XviD, 25 fps, 1266 kbps
Аудио: AC3, 2 ch, 48 kHz, 192 kbps









скриншот  скриншот  скриншот  скриншот  скриншот  
General
Format : AVI
Format/Info : Audio Video Interleave
File size : 752 MiB
Duration : 1h 11mn
Overall bit rate : 1 468 Kbps
Writing application : VirtualDubMod 1.5.10.2 (build 2540/release)
Writing library : VirtualDubMod build 2540/release
Video #0
ID : 0
Format : MPEG-4 Visual
Format profile : Advanced Simple@L5
Format settings, BVOP : 2
Format settings, QPel : No
Format settings, GMC : No warppoints
Format settings, Matrix : Default (MPEG)
Codec ID : XVID
Codec ID/Hint : XviD
Duration : 1h 11mn
Bit rate : 1 266 Kbps
Width : 720 pixels
Height : 544 pixels
Display aspect ratio : 4:3
Frame rate : 25.000 fps
Color space : YUV
Chroma subsampling : 4:2:0
Bit depth : 8 bits
Scan type : Progressive
Compression mode : Lossy
Bits/(Pixel*Frame) : 0.129
Stream size : 649 MiB (86%)
Writing library : XviD 1.2.1 (UTC 2008-12-04)
Audio #1
ID : 1
Format : AC-3
Format/Info : Audio Coding 3
Mode extension : CM (complete main)
Format settings, Endianness : Big
Codec ID : 2000
Duration : 1h 11mn
Bit rate mode : Constant
Bit rate : 192 Kbps
Channel(s) : 2 channels
Channel positions : Front: L R
Sampling rate : 48.0 KHz
Compression mode : Lossy
Stream size : 98.4 MiB (13%)
Alignment : Split accross interleaves
Interleave, duration : 40 ms (1.00 video frame)
Interleave, preload duration : 500 ms


pb.wtf



Скачать Зверобой через торрент http://pic.kartinco.top/images/11/yt8em.jpg Скачать фильм Зверобой через торрент бесплантно в хорошем качестве Описание: Пока французы и англичане сражались за североамериканские территории, индейские племена гуронов и делаваров также дрались между ... 5.8 10 5
Торрент: Зарегистрирован [2015-12-30 15:39] · скачан: 12 раз
Статус: √ проверено
Размер: 1.47 GB
Как cкачать? Как скачать Зверобой через торрент | qTorrent

% Раздел Тема Автор DL S | L
Приключения-путешествия [ 893 MB ] Купер Джеймс Фенимор - Зверобой или Первая тропа войны [Вячеслав Герасимов 2015 96 kbps MP3] Бумер Скачать
1 | 1
Наши сериалы [ 14.32 GB ] Зверобой-3 / Сезон: 3 Серии: 32 из 32 [2011 SATRip] -=Cherry=- Скачать
1 | 0
Наши сериалы [ 14.32 GB ] Зверобой 2 сезон / Серия 32 из 32 / [2010 SATRip] -=Cherry=- Скачать
1 | 0

28-11-2019 20:33  

Отключить всю рекламу на сайте

    Дорогой пользователь! Огромная просьба, поблагодарите релизера, оцените раздачу и оставьте свои комментарий, если Вы скачали Зверобой через торрент бесплатно! Внесите свою лепту в развитие PiratBit!
    Комментировать посты могут только пользователи прошедшие не сложную регистрацию
    Показать сообщения:    

    Зверобой через торрент
    Скачать бесплатно Зверобой
    Зверобой скачать торрент
    Зверобой смотреть онлайн
    Cкачать фильм Зверобой бесплатно
    Зверобой скачать торрент в хорошем качестве
    Зверобой смотреть онлайн бесплатно в хорошем качестве


    Вы не можете начинать темы
    Вы не можете отвечать на сообщения
    Вы не можете редактировать свои сообщения
    Вы не можете удалять свои сообщения
    Вы не можете голосовать в опросах
    Вы не можете прикреплять файлы к сообщениям
    Вы можете скачивать файлы