Ссылка на приватное зеркало всего за 1$. Внимание количество ограничено!!!

OK

1+1

iTunes

мы

OK

1

WEB-DLRip

Джокер

Пифагор

Ведьмак / The Witcher сериал

iTunes

ПШазам

ОК

Оно 2

iTunes

30
pack

Вам бонус

ВАЖНО

!!Акция!!

Alien_RageХит недели

RePack

Resident Evil 21

ИГРА 18+

pack

RePack

jed

RePack

fifa19

RePack

Assassins Creed: Odyssey

RePack

NEED FOR SPEED™ PAYBACK

4 сезон

9 сезон

Бесстыжие 9 сезон

Все сериалы

все сериалы на PB.wtf

RePack

FAR CRY 5
  

Марсианин / The Martian (Ридли Скотт / Ridley Scott) [2015, США, Великобритания, фантастика, приключения, BDRip-AVC от sokol_ok] DUB Лицензия pb.wtf

Марсианин через торрент pb.wtf

Раздают: 3 [ 0 KB/s ]
Размер: 2.91 GB | Добавлен: 4 года назад | Торрент скачан:895 раз
Скачать  

30-12-2015 21:03 Марсианин Скачать торрент  

Марсианин
The Martian

«Верните его домой»


Страна: США, Великобритания
Жанр: фантастика, приключения
Год выпуска: 2015
Продолжительность: 02:21:37

Перевод: Профессиональный (полное дублирование) [Лицензия BD 3D EUR]
Cубтитры: Русские (форсированные, полные), Украинские (форсированные, полные), Английские (форсированные, полные, SDH)
Оригинальная аудиодорожка: Английский

Режиссер: Ридли Скотт / Ridley Scott

В ролях: Мэтт Дэймон, Джессика Честейн, Чиветель Эджиофор, Кристен Уиг, Джефф Дэниелс, Майкл Пенья, Шон Бин, Кейт Мара, Себастьян Стэн, Аксель Хенни, Бенедикт Вонг, Маккензи Дэвис

Описание:
Марсианская миссия «Арес-3» в процессе работы была вынуждена экстренно покинуть планету из-за надвигающейся песчаной бури. Инженер и биолог Марк Уотни получил повреждение скафандра во время песчаной бури. Сотрудники миссии, посчитав его погибшим, эвакуировались с планеты, оставив Марка одного.
Очнувшись, Уотни обнаруживает, что связь с Землёй отсутствует, но при этом полностью функционирует жилой модуль. Главный герой начинает искать способ продержаться на имеющихся запасах еды, витаминов, воды и воздуха ещё 4 года до прилёта следующей миссии «Арес-4». Релиз:

Автор рипа: Stalker oK

Сэмпл

Качество видео: BDRip-AVC [HDCLUB / Blu-ray Remux / 1080p]
Формат видео: MKV
Видео кодек: AVC
Аудио кодек: AC3
Видео: 2045 Кбит/сек, 1056*440 (2,40:1), в 23,976 (24000/1001) кадра/сек, AVC
Аудио #1: Russian, 448 Кбит/сек, 48,0 КГц, 6 каналов, AC-3
Аудио #2: English, 448 Кбит/сек, 48,0 КГц, 6 каналов, AC-3

Общее
Уникальный идентификатор : 222652299750082370743856344599942608324 (0xA78145EBAFAD77538040C8C4FD6335C4)
Полное имя : M:\Rips\The Martian\1\The.Martian.2015.BDRip-AVC.Dub.2.91Gb.stalkerok.new-team..mkv
Формат : Matroska
Версия формата : Version 4 / Version 2
Размер файла : 2,91 Гбайт
Продолжительность : 2 ч. 21 м.
Общий поток : 2940 Кбит/сек
Название фильма : The Martian (2015) (New-Team) (Rip by Stalker oK)
Дата кодирования : UTC 2016-01-09 19:45:58
Программа кодирования : mkvmerge v8.6.1 ('Flying') 64bit
Библиотека кодирования : libebml v1.3.3 + libmatroska v1.4.4

Видео
Идентификатор : 1
Формат : AVC
Формат/Информация : Advanced Video Codec
Профиль формата : High@L4.1
Параметр CABAC формата : Да
Параметр ReFrames формата : 14 кадров
Идентификатор кодека : V_MPEG4/ISO/AVC
Продолжительность : 2 ч. 21 м.
Битрейт : 2045 Кбит/сек
Ширина : 1056 пикселей
Высота : 440 пикселей
Соотношение сторон : 2,40:1
Режим частоты кадров : Постоянный
Частота кадров : 23,976 (24000/1001) кадра/сек
Цветовое пространство : YUV
Субдискретизация насыщенности : 4:2:0
Битовая глубина : 8 бит
Тип развёртки : Прогрессивная
Бит/(Пиксели*Кадры) : 0.184
Размер потока : 2,02 Гбайт (69%)
Заголовок : The Martian (2015) (New-Team) (Rip by Stalker oK)
Библиотека кодирования : x264 core 148 r2638kMod 7599210
Настройки программы : cabac=1 / ref=14 / deblock=1:-3:-3 / analyse=0x3:0x133 / me=umh / subme=11 / psy=1 / fade_compensate=0.00 / psy_rd=1.00:0.10 / mixed_ref=1 / me_range=48 / chroma_me=1 / trellis=2 / 8x8dct=1 / cqm=0 / deadzone=21,11 / fast_pskip=0 / chroma_qp_offset=-3 / threads=12 / lookahead_threads=3 / sliced_threads=0 / nr=0 / decimate=0 / interlaced=0 / bluray_compat=0 / constrained_intra=0 / fgo=0 / bframes=15 / b_pyramid=2 / b_adapt=2 / b_bias=0 / direct=3 / weightb=1 / open_gop=0 / weightp=2 / keyint=240 / keyint_min=23 / scenecut=40 / intra_refresh=0 / rc_lookahead=60 / rc=2pass / mbtree=0 / bitrate=2045 / ratetol=1.0 / qcomp=0.70 / qpmin=0 / qpmax=69 / qpstep=4 / cplxblur=20.0 / qblur=0.5 / vbv_maxrate=50000 / vbv_bufsize=62500 / nal_hrd=none / filler=0 / ip_ratio=1.40 / pb_ratio=1.30 / aq=3:0.90
Default : Да
Forced : Нет

Аудио #1
Идентификатор : 2
Формат : AC-3
Формат/Информация : Audio Coding 3
Расширение режима : CM (complete main)
Параметр Endianness формата : Big
Идентификатор кодека : A_AC3
Продолжительность : 2 ч. 21 м.
Вид битрейта : Постоянный
Битрейт : 448 Кбит/сек
Каналы : 6 каналов
Расположение каналов : Front: L C R, Side: L R, LFE
Частота : 48,0 КГц
Частота кадров : 31,250 кадров/сек (1536 spf)
Метод сжатия : С потерями
Размер потока : 454 Мбайт (15%)
Язык : English
Default : Нет
Forced : Нет

Аудио #2
Идентификатор : 10
Формат : AC-3
Формат/Информация : Audio Coding 3
Расширение режима : CM (complete main)
Параметр Endianness формата : Big
Идентификатор кодека : A_AC3
Продолжительность : 2 ч. 21 м.
Вид битрейта : Постоянный
Битрейт : 448 Кбит/сек
Каналы : 6 каналов
Расположение каналов : Front: L C R, Side: L R, LFE
Частота : 48,0 КГц
Частота кадров : 31,250 кадров/сек (1536 spf)
Метод сжатия : С потерями
Размер потока : 454 Мбайт (15%)
Язык : Russian
Default : Да
Forced : Нет

Текст #1
Идентификатор : 3
Формат : UTF-8
Идентификатор кодека : S_TEXT/UTF8
Идентификатор кодека/Информация : UTF-8 Plain Text
Продолжительность : 2 ч. 20 м.
Битрейт : 3 бит/сек
Count of elements : 67
Размер потока : 3,16 Кбайт (0%)
Заголовок : Forced
Язык : Russian
Default : Да
Forced : Нет

Текст #2
Идентификатор : 4
Формат : UTF-8
Идентификатор кодека : S_TEXT/UTF8
Идентификатор кодека/Информация : UTF-8 Plain Text
Продолжительность : 2 ч. 20 м.
Битрейт : 94 бит/сек
Count of elements : 1753
Размер потока : 97,5 Кбайт (0%)
Язык : Russian
Default : Нет
Forced : Нет

Текст #3
Идентификатор : 5
Формат : UTF-8
Идентификатор кодека : S_TEXT/UTF8
Идентификатор кодека/Информация : UTF-8 Plain Text
Продолжительность : 2 ч. 19 м.
Битрейт : 2 бит/сек
Count of elements : 50
Размер потока : 2,42 Кбайт (0%)
Заголовок : Forced
Язык : Ukrainian
Default : Нет
Forced : Нет

Текст #4
Идентификатор : 6
Формат : UTF-8
Идентификатор кодека : S_TEXT/UTF8
Идентификатор кодека/Информация : UTF-8 Plain Text
Продолжительность : 2 ч. 20 м.
Битрейт : 97 бит/сек
Count of elements : 1753
Размер потока : 100 Кбайт (0%)
Язык : Ukrainian
Default : Нет
Forced : Нет

Текст #5
Идентификатор : 7
Формат : UTF-8
Идентификатор кодека : S_TEXT/UTF8
Идентификатор кодека/Информация : UTF-8 Plain Text
Продолжительность : 2 ч. 13 м.
Битрейт : 60 бит/сек
Count of elements : 1793
Размер потока : 58,7 Кбайт (0%)
Язык : English
Default : Нет
Forced : Нет

Текст #6
Идентификатор : 8
Формат : UTF-8
Идентификатор кодека : S_TEXT/UTF8
Идентификатор кодека/Информация : UTF-8 Plain Text
Продолжительность : 47 с.
Битрейт : 90 бит/сек
Count of elements : 12
Размер потока : 542 байт (0%)
Заголовок : Forced
Язык : English
Default : Нет
Forced : Нет

Текст #7
Идентификатор : 9
Формат : UTF-8
Идентификатор кодека : S_TEXT/UTF8
Идентификатор кодека/Информация : UTF-8 Plain Text
Продолжительность : 2 ч. 15 м.
Битрейт : 61 бит/сек
Count of elements : 2130
Размер потока : 60,8 Кбайт (0%)
Заголовок : SDH
Язык : English
Default : Нет
Forced : Нет

Меню
00:00:00.000 : en:Chapter 1
00:03:22.284 : en:Chapter 2
00:10:08.982 : en:Chapter 3
00:15:24.590 : en:Chapter 4
00:18:25.186 : en:Chapter 5
00:21:34.375 : en:Chapter 6
00:24:28.090 : en:Chapter 7
00:28:52.689 : en:Chapter 8
00:31:36.644 : en:Chapter 9
00:34:21.099 : en:Chapter 10
00:39:13.434 : en:Chapter 11
00:41:21.768 : en:Chapter 12
00:46:23.530 : en:Chapter 13
00:49:25.085 : en:Chapter 14
00:56:15.746 : en:Chapter 15
00:59:40.492 : en:Chapter 16
01:02:23.822 : en:Chapter 17
01:06:53.134 : en:Chapter 18
01:09:52.979 : en:Chapter 19
01:13:51.301 : en:Chapter 20
01:18:38.255 : en:Chapter 21
01:22:52.466 : en:Chapter 22
01:30:41.269 : en:Chapter 23
01:37:30.094 : en:Chapter 24
01:43:31.997 : en:Chapter 25
01:46:16.286 : en:Chapter 26
01:50:18.737 : en:Chapter 27
01:54:07.966 : en:Chapter 28
01:57:49.311 : en:Chapter 29
02:04:41.681 : en:Chapter 30
02:11:05.731 : en:Chapter 31
02:13:28.792 : en:Chapter 32
pb.wtf



Скачать Марсианин через торрент http://i72.fastpic.ru/big/2015/0531/46/68ef8a2783b58e5344cc30bbd3f1b046.png Скачать фильм Марсианин через торрент бесплантно в хорошем качестве Описание:Марсианская миссия «Арес-3» в процессе работы была вынуждена экстренно покинуть планету из-за надвигающейся песчаной бури. Инженер ... 9.1 10 18
Info! Золотая раздача, скачанное не засчитывается.
Торрент: Зарегистрирован [2016-01-09 20:04] · скачан: 895 раз
Статус: √ проверено
Размер: 2.91 GB
Как cкачать? Как скачать Марсианин через торрент | qTorrent

% Раздел Тема Автор DL S | L
Фильмы [HD 720p, 1080p] (Хороший звук DUB, MVO) [ 6.44 GB ] Марсианин / The Martian [2015 BDRip-HEVC 1080p ] [Расширенная версия] DUB [] bober100 Скачать
1 | 0
Ultra HD (UHD: 2K, 4K, 8K) — видео сверхвысокой чёткости [ 56.92 GB ] Марсианин / The Martian [2015 UHDWEBRip 2160p] DUB+2xAVO [] sheker187 Скачать
2 | 0
Фильмы 2015 [DVDrip, WEB-DLRip, HDrip] [ 1.46 GB ] Марсианин / The Martian [2015 BDRip-AVC от sokol_ok] DUB sokol_ok Скачать
2 | 0
Фильмы 2015 [DVDrip, WEB-DLRip, HDrip] [ 1.46 GB ] Марсианин / The Martian [2015 BDRip] DUB Twi7ter Скачать
2 | 0
Фильмы [HD 720p, 1080p] (Хороший звук DUB, MVO) [ 7.75 GB ] Марсианин / The Martian [2015 BDRip 720p] DUB potroks Скачать
1 | 0
Фильмы [HD 720p, 1080p] (Хороший звук DUB, MVO) [ 5.76 GB ] Марсианин / The Martian [2015 BDRip 720p] [] + [AVO] killermax2013 Скачать
1 | 0
Фильмы 2015 [DVDrip, WEB-DLRip, HDrip] [ 1.65 GB ] Марсианин / The Martian [2015 BDRip-AVC] DUB potroks Скачать
1 | 0


Последний раз редактировалось: sokol_ok (2016-01-09 20:25), всего редактировалось 2 раз(а)

28-11-2019 20:33  

Отключить всю рекламу на сайте

09-01-2016 20:04 Марсианин Скачать торрент  

перезалито, замена звукаpb.wtf



10-01-2016 12:26 Марсианин Скачать торрент  

Очередной американский бред!!!pb.wtf



10-01-2016 17:06 Марсианин Скачать торрент  

Книга лучшеpb.wtf



10-01-2016 17:40 Марсианин Скачать торрент  

Отличный фильм 10 из 10.pb.wtf



10-01-2016 19:55 Марсианин Скачать торрент  

Фильм очень классный!!!! pb.wtf



12-01-2016 08:47 Марсианин Скачать торрент  

фильм , мне вообще не понравился, зря только в кино на него ходил pb.wtf



    Дорогой пользователь! Огромная просьба, поблагодарите релизера, оцените раздачу и оставьте свои комментарий, если Вы скачали Марсианин через торрент бесплатно! Внесите свою лепту в развитие PiratBit!
    Комментировать посты могут только пользователи прошедшие не сложную регистрацию
    Показать сообщения:    

    Марсианин через торрент
    Скачать бесплатно Марсианин
    Марсианин скачать торрент
    Марсианин смотреть онлайн
    Cкачать фильм Марсианин бесплатно
    Марсианин скачать торрент в хорошем качестве
    Марсианин смотреть онлайн бесплатно в хорошем качестве


    Вы не можете начинать темы
    Вы не можете отвечать на сообщения
    Вы не можете редактировать свои сообщения
    Вы не можете удалять свои сообщения
    Вы не можете голосовать в опросах
    Вы не можете прикреплять файлы к сообщениям
    Вы можете скачивать файлы