Ссылка на приватное зеркало всего за 1$. Внимание количество ограничено!!!

iTunes

iTunes

iTunes

1

iTunes

iTunes

iTunes

iTunes

iTunes

30
pack

$ от Little Big

ВАЖНО

!!Акция!!

Alien_RageХит недели

RePack

Resident Evil 21

ИГРА 18+

pack

RePack

jed

!!Акция!!

Alien_Rage

RePack

fifa19

RePack

Assassins Creed: Odyssey

RePack

NEED FOR SPEED™ PAYBACK

4 сезон

9 сезон

Бесстыжие 9 сезон

Все сериалы

все сериалы на PB.wtf

RePack

FAR CRY 5
  

Он – дракон (Индар Джендубаев ) [2015, фэнтези, WEB-DLRip, iTunes] pb.wtf

Он – дракон через торрент pb.wtf

Размер: 1.46 GB | Добавлен: 4 года 5 мес. назад | Торрент скачан:1312 раз
Скачать  

31-12-2015 08:19 Он – дракон Скачать торрент  

Он – дракон

Год выпуска: 2015
Страна: Россия
Жанр: фэнтези
Продолжительность: 01:46:54
Перевод: Оригинальный [iTunes]
Режиссер: Индар Джендубаев
В ролях: Мария Поезжаева (Мирослава), Матвей Лыков (Арман), Станислав Любшин (князь), Иева Андреевайте (Ярослава), Петр Романов (Игорь), Андрей Лебединский (Кормчий), Марта Тимофеева (дочь Миры и Армана), Иво Господинов (Арман мальчик), Егор Зубарчук (отец Армана), Виктория Рунцова (невеста 1), Анастасия Дубровина (невеста 2), Алена Чехова (невеста 3)
Описание:
В разгар свадьбы княжну Мирославу похищает дракон, унося в свой замок на острове. В прошлом остались родные, жених, теперь только каменный плен в компании прекрасного Армана... но кто он и как оказался на острове? Мира поймет это слишком поздно: любовь к нему, человеку-дракону, откроет ей горькую истину - любить страшно.
Рейтинг:

Качество: WEB-DLRip
Формат: AVI
Видео: XviD, 720x304 (2.35:1), 1562 kbps, 24 fps, 0,298 bpp
Аудио: AC3 / 5.1 / 48 kHz / 384 kbps / 16 bit

Код:

General
Complete name                            : D:\Down\Dpakon.2015.D.WEB-DLRip.avi
Format                                   : AVI
Format/Info                              : Audio Video Interleave
File size                                : 1.46 GiB
Duration                                 : 1h 46mn
Overall bit rate                         : 1 956 Kbps
Writing application                      : VirtualDubMod 1.5.10.3 | www.virtualdub-fr.org || (build 2550/release)
Writing library                          : VirtualDubMod build 2550/release

Video
ID                                       : 0
Format                                   : MPEG-4 Visual
Format profile                           : Advanced Simple@L5
Format settings, BVOP                    : 2
Format settings, QPel                    : No
Format settings, GMC                     : No warppoints
Format settings, Matrix                  : Default (MPEG)
Codec ID                                 : XVID
Codec ID/Hint                            : XviD
Duration                                 : 1h 46mn
Bit rate                                 : 1 563 Kbps
Width                                    : 720 pixels
Height                                   : 304 pixels
Display aspect ratio                     : 2.35:1
Frame rate                               : 24.000 fps
Color space                              : YUV
Chroma subsampling                       : 4:2:0
Bit depth                                : 8 bits
Scan type                                : Progressive
Compression mode                         : Lossy
Bits/(Pixel*Frame)                       : 0.298
Stream size                              : 1.17 GiB (80%)
Writing library                          : XviD 1.2.1 (UTC 2008-12-04)

Audio
ID                                       : 1
Format                                   : AC-3
Format/Info                              : Audio Coding 3
Mode extension                           : CM (complete main)
Codec ID                                 : 2000
Duration                                 : 1h 46mn
Bit rate mode                            : Constant
Bit rate                                 : 384 Kbps
Channel(s)                               : 6 channels
Channel positions                        : Front: L C R, Side: L R, LFE
Sampling rate                            : 48.0 KHz
Bit depth                                : 16 bits
Compression mode                         : Lossy
Stream size                              : 294 MiB (20%)
Alignment                                : Split accross interleaves
Interleave, duration                     : 42 ms (1.00 video frame)
Interleave, preload duration             : 500 ms

pb.wtf



Скачать Он – дракон через торрент http://i4.imageban.ru/out/2015/12/31/e47e30b87ab02ac651b7810d0a4c556d.jpg Скачать фильм Он – дракон через торрент бесплантно в хорошем качестве Описание: В разгар свадьбы княжну Мирославу похищает дракон, унося в свой замок на острове. В прошлом остались родные, жених, теперь только ... 9.7 10 43
Info! Золотая раздача, скачанное не засчитывается.
Торрент: Зарегистрирован [2015-12-31 08:19] · скачан: 1 312 раз
Статус: √ проверено
Размер: 1.46 GB
Как cкачать? Как скачать Он – дракон через торрент | qTorrent

% Раздел Тема Автор DL S | L
Фильмы 2011 [ 1.38 GB ] Драконьи крестоносцы / Dragon Crusaders [2011 HDRip] MrKuzj Скачать
1 | 0
Иностранные мультфильмы [ 1.45 GB ] Как приручить дракона / How to Train Your Dragon [2010 мультфильм HDRip-AVC] от R.G. nICE Films Demonessa Скачать
36 | 0
Фильмы [HD 720p, 1080p] (Хороший звук DUB, MVO) [ 10.01 GB ] Девушка с татуировкой дракона / Män som hatar kvinnor [2009 BDRip 1080p] shuller Скачать
1 | 0
Фильмы [HD 720p, 1080p] (Хороший звук DUB, MVO) [ 8.52 GB ] Девушка с татуировкой дракона / The Girl with the Dragon Tattoo [2011 BDRip лицензия]Russian+Ukrainian ~Relizer~ Скачать
1 | 0
RPG [ 5.91 GB ] Divinity II. Кровь драконов [лицензияRURPG] Mitay98 Скачать
1 | 0
Фильмы 2011 [ 2.18 GB ] Девушка с татуировкой дракона / The Girl with the Dragon Tattoo [2011 HDRip лицензия] ~Relizer~ Скачать
1 | 0
Азиатские фильмы [ 1.46 GB ] Честь дракона / Tom yum goong / Revenge of the Warrior [2005 DVDRip] slav4i4ok Скачать
1 | 1

28-11-2019 20:33  

Отключить всю рекламу на сайте

31-12-2015 08:25 Он – дракон Скачать торрент  

Смотрел в кино, фильм отличный, советую к просмотруpb.wtf



31-12-2015 08:47 Он – дракон Скачать торрент  

Russian Mafia писал(а):

Смотрел в кино, фильм отличный, советую к просмотру

Ну если советуешь, то глянемpb.wtf



31-12-2015 11:36 Он – дракон Скачать торрент  

Не ожидал от наших киноделов такого качественного фэнтези. Операторская работа, спецэффекты и звуковой ряд на очень высоком уровне. Рекомендую к просмотру!pb.wtf



31-12-2015 12:20 Он – дракон Скачать торрент  

все советуют глянемpb.wtf



05-01-2016 21:38 Он – дракон Скачать торрент  

Огромное спасибо Фильм очень понравился Честно не ожидал Удивили Молодцыpb.wtf



25-01-2016 16:16 Он – дракон Скачать торрент  

Фильм суперpb.wtf



30-01-2016 20:30 Он – дракон Скачать торрент  

Приятно удивлёнpb.wtf



30-01-2016 20:31 Он – дракон Скачать торрент  

фильм детский но качество не уступает диснеюpb.wtf



    Дорогой пользователь! Огромная просьба, поблагодарите релизера, оцените раздачу и оставьте свои комментарий, если Вы скачали Он – дракон через торрент бесплатно! Внесите свою лепту в развитие PiratBit!
    Комментировать посты могут только пользователи прошедшие не сложную регистрацию
    Показать сообщения:    

    Он – дракон через торрент
    Скачать бесплатно Он – дракон
    Он – дракон скачать торрент
    Он – дракон смотреть онлайн
    Cкачать фильм Он – дракон бесплатно
    Он – дракон скачать торрент в хорошем качестве
    Он – дракон смотреть онлайн бесплатно в хорошем качестве


    Вы не можете начинать темы
    Вы не можете отвечать на сообщения
    Вы не можете редактировать свои сообщения
    Вы не можете удалять свои сообщения
    Вы не можете голосовать в опросах
    Вы не можете прикреплять файлы к сообщениям
    Вы можете скачивать файлы