2 сезон

iTunes

MVO

1

2 сезон

iTunes

iTunes

1 сезон

RePack

30

Новинка

ВАЖНО

ИГРА 18+

pack

RePack

MK11
pack

Легкие деньги

RePack

jed

RePack

fifa19

RePack

RDR2

RePack

NEED FOR SPEED™ PAYBACK

4 сезон

9 сезон

Бесстыжие 9 сезон

Все сериалы

все сериалы на PB.wtf

RePack

FAR CRY 5

Anonymous, добрый день, мы не успеваем собрать деньги на оплату серверов за декабрь и январь, помогите нам пожалуйста в это трудное время. В качестве благодарности мы отключим Вам всю рекламу на сайте (укажите свой ник в строку Ваше имя)!

×
  
Magnet ссылка

Tемнee нoчи в 3Д / Мás nеgrо quе la nоchе 3D (Генри Бедуэлл) [2014, Ужасы, BDrip, 1080p] OverUnder / Вертикальная стереопара pb.wtf

Tемнee нoчи в 3Д через торрент pb.wtf

Размер: 7.04 GB | Добавлен: 5 лет назад | Торрент скачан:199 раз
Скачать  

31-12-2015 08:31 Tемнee нoчи в 3Д Скачать торрент  

Темнее ночи / Más negro que la noche

Год выпуска: 2014
Страна: Мексика, Испания(Celeste Films, Filmadora Naciona)
Жанр: Ужасы
Продолжительность: 01:50:20

Перевод: Профессиональный (дублированный)
Русские субтитры: нет
Режиссер: Генри Бедуэлл

В ролях: Сурия Вега, Адриана Лувьер, Эрендира Ибарра, Она Косамикела, Маргарита Санс, Лусия Гильмаин, Хосе Мария Торре, Мигель Родарте, Сара Манни, Карла Круз

Описание: Юная Грета унаследовала огромный особняк от своей покойной тети Офелии с одним единственным условием - присматривать за ее любимцем - черным котом по кличке Беккер. Обрадованная такому повороту, девушка переезжает в особняк вместе с тремя лучшими подругами. Но однажды ночью из-за неосторожности девушек кот погибает. Тех, кто нарушил завещание, теперь ждет жестокая расплата.

Сэмпл: http://sendfile.su/1188492

Качество: BDrip, 1080p
Контейнер: MKV
Формат 3D: OverUnder / Вертикальная стереопара
Порядок ракурсов: левый ракурс первый
Видео кодек: x264
Аудио кодек: AC3
Видео: AVC / High@L5.0 / 23,976 fps / 1920х1600 /7865 Кбит/сек
Аудио 1: Русский / AC3 / 48 KHz / 5.1 ch / 448 Кбит/сек
Аудио 2: Испанский / AC3 / 48 KHz / 5.1 ch / 640 Кбит/сек

Релиз группы: ВНИМАНИЕ ! На встроенных ТВ-плеерах работать не будет!!!

ТВ Samsung в названии которого есть надпись Ultra HD , и LG Ultra HD 800 серии(исключение: LG UB850v не воспроизводит),Xiaomi Mi TV 2 воспроизводят полные стереопары встроенными плеерами
Железные плееры на которых воспроизводятся полные стереопары:Popcorn C-200 , Dune HD Smart D1 , Dune HD DUO , Dune HD Smart H1 , Dune HD Smart B1 , Dune HD Max , Dune HD TV-303D , Dune HD Base 3D, Philips HMP7001
Общее
Уникальный идентификатор : 188579552738392035847603034663639986632 (0x8DDF19CADEBF1C978E23DB347D3E31C8)
Полное имя : E:\закачки\Más negro que la noche.Rip by SeRoGa00.mkv
Формат : Matroska
Версия формата : Version 2
Размер файла : 7,04 Гбайт
Продолжительность : 1 ч. 50 м.
Общий поток : 9135 Кбит/сек
Дата кодирования : UTC 2015-12-31 05:55:44
Программа кодирования : mkvmerge v3.4.0 ('Rapunzel') сборка от May 15 2010 09:38:20
Библиотека кодирования : libebml v0.8.0 + libmatroska v0.9.0

Видео
Идентификатор : 1
Формат : AVC
Формат/Информация : Advanced Video Codec
Профиль формата : High@L5.0
Параметр CABAC формата : Да
Параметр ReFrames формата : 4 кадра
Идентификатор кодека : V_MPEG4/ISO/AVC
Продолжительность : 1 ч. 50 м.
Битрейт : 7865 Кбит/сек
Ширина : 1920 пикселей
Высота : 1600 пикселей
Соотношение сторон : 1,200
Частота кадров : 23,976 кадра/сек
Цветовое пространство : YUV
Субдискретизация насыщенности : 4:2:0
Битовая глубина : 8 бит
Тип развёртки : Прогрессивная
Бит/(Пиксели*Кадры) : 0.107
Размер потока : 6,06 Гбайт (86%)
Заголовок : Rip by SeRoGa00
Библиотека кодирования : x264 core 148 r2638 7599210
Настройки программы : cabac=1 / ref=4 / deblock=1:-3:-3 / analyse=0x3:0x113 / me=umh / subme=10 / psy=1 / psy_rd=1.00:0.15 / mixed_ref=1 / me_range=24 / chroma_me=1 / trellis=2 / 8x8dct=1 / cqm=0 / deadzone=21,11 / fast_pskip=1 / chroma_qp_offset=-3 / threads=9 / lookahead_threads=2 / sliced_threads=0 / nr=0 / decimate=1 / interlaced=0 / bluray_compat=0 / constrained_intra=0 / bframes=10 / b_pyramid=2 / b_adapt=2 / b_bias=0 / direct=3 / weightb=1 / open_gop=0 / weightp=2 / keyint=250 / keyint_min=23 / scenecut=40 / intra_refresh=0 / rc_lookahead=60 / rc=crf / mbtree=1 / crf=18.0 / qcomp=0.60 / qpmin=10 / qpmax=69 / qpstep=4 / vbv_maxrate=40000 / vbv_bufsize=50000 / crf_max=0.0 / nal_hrd=none / filler=0 / ip_ratio=1.40 / aq=1:1.00
Язык : English
Default : Нет
Forced : Нет

Аудио #1
Идентификатор : 2
Формат : AC-3
Формат/Информация : Audio Coding 3
Расширение режима : CM (complete main)
Параметр Endianness формата : Big
Идентификатор кодека : A_AC3
Продолжительность : 1 ч. 50 м.
Вид битрейта : Постоянный
Битрейт : 448 Кбит/сек
Каналы : 6 каналов
Расположение каналов : Front: L C R, Side: L R, LFE
Частота : 48,0 КГц
Битовая глубина : 16 бит
Метод сжатия : С потерями
Размер потока : 354 Мбайт (5%)
Язык : Russian
Default : Да
Forced : Нет

Аудио #2
Идентификатор : 3
Формат : AC-3
Формат/Информация : Audio Coding 3
Расширение режима : CM (complete main)
Параметр Endianness формата : Big
Идентификатор кодека : A_AC3
Продолжительность : 1 ч. 50 м.
Вид битрейта : Постоянный
Битрейт : 640 Кбит/сек
Каналы : 6 каналов
Расположение каналов : Front: L C R, Side: L R, LFE
Частота : 48,0 КГц
Битовая глубина : 16 бит
Метод сжатия : С потерями
Размер потока : 505 Мбайт (7%)
Язык : Spanish
Default : Нет
Forced : Нет
pb.wtf



Скачать Tемнee нoчи в 3Д через торрент http://s018.radikal.ru/i509/1512/63/0dbcea47785f.png Скачать фильм Tемнee нoчи в 3Д через торрент бесплантно в хорошем качестве Описание: Юная Грета унаследовала огромный особняк от своей покойной тети Офелии с одним единственным условием - присматривать за ее ... 10 10 5
Info! Золотая раздача, скачанное не засчитывается.
Торрент: Зарегистрирован [2015-12-31 08:31] · скачан: 199 раз
Статус: √ проверено
Размер: 7.04 GB
Как cкачать? Как скачать Tемнee нoчи в 3Д через торрент | UTorrent

28-11-2019 20:33  

Отключить всю рекламу на сайте

04-01-2016 11:24 Tемнee нoчи в 3Д Скачать торрент  

Никогда не понимал зачем выкладывать в таком разрешении..
В 1920 на 1080 будет?pb.wtf



    Дорогой пользователь! Огромная просьба, поблагодарите релизера, оцените раздачу и оставьте свои комментарий, если Вы скачали Tемнee нoчи в 3Д через торрент бесплатно! Внесите свою лепту в развитие PiratBit!
    Комментировать посты могут только пользователи прошедшие не сложную регистрацию
    Показать сообщения:    

    Tемнee нoчи в 3Д через торрент
    Скачать бесплатно Tемнee нoчи в 3Д
    Tемнee нoчи в 3Д скачать торрент
    Tемнee нoчи в 3Д смотреть онлайн
    Cкачать фильм Tемнee нoчи в 3Д бесплатно
    Tемнee нoчи в 3Д скачать торрент в хорошем качестве
    Tемнee нoчи в 3Д смотреть онлайн бесплатно в хорошем качестве


    Вы не можете начинать темы
    Вы не можете отвечать на сообщения
    Вы не можете редактировать свои сообщения
    Вы не можете удалять свои сообщения
    Вы не можете голосовать в опросах
    Вы не можете прикреплять файлы к сообщениям
    Вы можете скачивать файлы