Ссылка на приватное зеркало всего за 1$. Внимание количество ограничено!!!

iTunes

iTunes

iTunes

1

iTunes

iTunes

iTunes

iTunes

iTunes

30
pack

Новость дня

ВАЖНО

!!Акция!!

Alien_RageХит недели

RePack

Resident Evil 21

ИГРА 18+

pack

RePack

jed

!!Акция!!

Alien_Rage

RePack

fifa19

RePack

Assassins Creed: Odyssey

RePack

NEED FOR SPEED™ PAYBACK

4 сезон

9 сезон

Бесстыжие 9 сезон

Все сериалы

все сериалы на PB.wtf

RePack

FAR CRY 5
  

SOS, Дед Мороз или Все сбудется! (Арман Геворгян ) [2015, комедия, семейный, WEB-DLRip, Оригинальный [iTunes] pb.wtf

SOS, Дед Мороз или Все сбудется! через торрент pb.wtf

Размер: 1.36 GB | Добавлен: 4 года 4 мес. назад | Торрент скачан:889 раз
Скачать  

31-12-2015 08:37 SOS, Дед Мороз или Все сбудется! Скачать торрент  

SOS, Дед Мороз или Все сбудется!

Год выпуска: 2015
Страна: Россия
Жанр: комедия, семейный
Продолжительность: 01:26:59
Перевод: Оригинальный [iTunes]
Режиссер: Арман Геворгян
В ролях: Михаил Беспалов (Мышкин), Софья Спектор (Света), Анатолий Белый (Николай), Алёна Бабенко (Марина), Дмитрий Назаров (Иван Васильевич), Андрей Бедняков (Гарик), Оксана Акиньшина (Ольга), Алексей Бардуков (Лёха), Полина Максимова (жена Скрябина), Сергей Рост (Скрябин), Дарья Мельникова (Лера), Анна Старшенбаум (Настя)
Описание:
Света отчаянно хочет, чтобы ее родители помирились. Она верит, что эту мечту обязательно исполнит Дед Мороз, только стоит найти его и попросить об этом. Как же кстати он встречается Свете как раз накануне Нового года. Только вот девочка приняла за Деда Мороза переодетого мошенника и обаятельного афериста Мышкина. Теперь эта парочка на пути к исполнению своих желаний вовлечет в круговорот новогодних приключений еще десяток ни в чем неповинных людей, у которых теперь тоже появится надежда встретить эту новогоднюю ночь счастливыми.
Рейтинг:

Качество: WEB-DLRip
Формат: AVI
Видео: XviD, 720x304 (2.35:1), 1852 kbps, 25 fps, 0,339 bpp
Аудио: AC3 / 5.1 / 48 kHz / 384 kbps / 16 bit

Код:

General
Complete name                            : D:\Down\Moroz.2015.O.WEB-DLRip.avi
Format                                   : AVI
Format/Info                              : Audio Video Interleave
File size                                : 1.36 GiB
Duration                                 : 1h 26mn
Overall bit rate                         : 2 247 Kbps
Writing application                      : VirtualDubMod 1.5.10.3 | www.virtualdub-fr.org || (build 2550/release)
Writing library                          : VirtualDubMod build 2550/release

Video
ID                                       : 0
Format                                   : MPEG-4 Visual
Format profile                           : Advanced Simple@L5
Format settings, BVOP                    : 2
Format settings, QPel                    : No
Format settings, GMC                     : No warppoints
Format settings, Matrix                  : Default (MPEG)
Codec ID                                 : XVID
Codec ID/Hint                            : XviD
Duration                                 : 1h 26mn
Bit rate                                 : 1 853 Kbps
Width                                    : 720 pixels
Height                                   : 304 pixels
Display aspect ratio                     : 2.35:1
Frame rate                               : 25.000 fps
Color space                              : YUV
Chroma subsampling                       : 4:2:0
Bit depth                                : 8 bits
Scan type                                : Progressive
Compression mode                         : Lossy
Bits/(Pixel*Frame)                       : 0.339
Stream size                              : 1.13 GiB (82%)
Writing library                          : XviD 1.2.1 (UTC 2008-12-04)

Audio
ID                                       : 1
Format                                   : AC-3
Format/Info                              : Audio Coding 3
Mode extension                           : CM (complete main)
Codec ID                                 : 2000
Duration                                 : 1h 26mn
Bit rate mode                            : Constant
Bit rate                                 : 384 Kbps
Channel(s)                               : 6 channels
Channel positions                        : Front: L C R, Side: L R, LFE
Sampling rate                            : 48.0 KHz
Bit depth                                : 16 bits
Compression mode                         : Lossy
Stream size                              : 239 MiB (17%)
Alignment                                : Split accross interleaves
Interleave, duration                     : 40 ms (1.00 video frame)
Interleave, preload duration             : 500 ms

pb.wtf



Скачать SOS, Дед Мороз или Все сбудется! через торрент http://i76.fastpic.ru/big/2015/1231/c5/644889c37cb998186b7082a9cf745cc5.jpg Скачать фильм SOS, Дед Мороз или Все сбудется! через торрент бесплантно в хорошем качестве Описание: Света отчаянно хочет, чтобы ее родители помирились. Она верит, что эту мечту обязательно исполнит Дед Мороз, только стоит найти ... 9.5 10 25
Info! Золотая раздача, скачанное не засчитывается.
Торрент: Зарегистрирован [2015-12-31 08:37] · скачан: 889 раз
Статус: √ проверено
Размер: 1.36 GB
Как cкачать? Как скачать SOS, Дед Мороз или Все сбудется! через торрент | qTorrent

% Раздел Тема Автор DL S | L
R.G. Resident & PiratVoice - Фильмы, Видео [ 1.46 GB ] SOS Дед Мороз или Все сбудется! [2015 WEB-DLRip-AVC Оригинальный R.G.Resident schultz Скачать
2 | 0
Наши фильмы (HD, WEB-DL 720p, 1080p) [ 3.27 GB ] SOS Дед Мороз или Все сбудется! [2015 WEB-DL 1080p] $-DRON-$ Скачать
1 | 0
Наши фильмы (HD, WEB-DL 720p, 1080p) [ 2.69 GB ] SOS Дед Мороз или Все сбудется! [2015 WEB-DL 720p] $-DRON-$ Скачать
1 | 0

28-11-2019 20:33  

Отключить всю рекламу на сайте

10-01-2016 19:37 SOS, Дед Мороз или Все сбудется! Скачать торрент  

Прикольная киноха!pb.wtf



    Дорогой пользователь! Огромная просьба, поблагодарите релизера, оцените раздачу и оставьте свои комментарий, если Вы скачали SOS, Дед Мороз или Все сбудется! через торрент бесплатно! Внесите свою лепту в развитие PiratBit!
    Комментировать посты могут только пользователи прошедшие не сложную регистрацию
    Показать сообщения:    

    SOS, Дед Мороз или Все сбудется! через торрент
    Скачать бесплатно SOS, Дед Мороз или Все сбудется!
    SOS, Дед Мороз или Все сбудется! скачать торрент
    SOS, Дед Мороз или Все сбудется! смотреть онлайн
    Cкачать фильм SOS, Дед Мороз или Все сбудется! бесплатно
    SOS, Дед Мороз или Все сбудется! скачать торрент в хорошем качестве
    SOS, Дед Мороз или Все сбудется! смотреть онлайн бесплатно в хорошем качестве


    Вы не можете начинать темы
    Вы не можете отвечать на сообщения
    Вы не можете редактировать свои сообщения
    Вы не можете удалять свои сообщения
    Вы не можете голосовать в опросах
    Вы не можете прикреплять файлы к сообщениям
    Вы можете скачивать файлы