2 сезон

iTunes

1 сезон

1

iTunes

iTunes

iTunes

1 сезон

RePack

30

ИГРА 18+

pack

ВАЖНО

!!Акция!!

Alien_RageХит недели

RePack

MK11
pack

Забери бонус

RePack

jed

!!Акция!!

Alien_Rage

RePack

fifa19

RePack

Assassins Creed: Odyssey

RePack

NEED FOR SPEED™ PAYBACK

4 сезон

9 сезон

Бесстыжие 9 сезон

Все сериалы

все сериалы на PB.wtf

RePack

FAR CRY 5
  

Пэн: Путешествие в Нетландию / Pan (Джо Райт) [2015 г., Фэнтези, комедия, приключения, семейный, BDRip 1080p] DUB [iTunes] pb.wtf

Пэн: Путешествие в Нетландию через торрент pb.wtf

Раздают: 1 [ 0 KB/s ]
Размер: 7.71 GB | Добавлен: 4 года 9 мес. назад | Торрент скачан:966 раз
Скачать  

31-12-2015 09:40 Пэн: Путешествие в Нетландию Скачать торрент  

«У каждой легенды есть своё начало»
Год выпуска » 2015
Страна » США, Великобритания, Австралия (Warner Bros. Pictures, RatPac-Dune Entertainment)
Жанр » Фэнтези, Приключения, Семейный
Продолжительность » 01:51:32
Перевод » Дублированный [iTunes]
Субтитры » Русские (форсированные)

В ролях
» Хью Джекман, Леви Миллер, Гаррет Хедлунд, Руни Мара, Аманда Сайфред, Кара Делевинь, Нонсо Анози, Пол Кэй, Эмиральд Феннел, Адиль Ахтар


Режиссёр
» Джо Райт
ОПИСАНИЕ:
» Питер Пэн — безграмотный лондонский сирота, в поисках матери и собственного предназначения оказавшийся в Нетландии. Здесь ему предстоит стать не кем иным, как лидером восстания местных жителей против злых пиратов, которое возглавляет капитан Черная борода. А вот вечный враг Пэна, Джеймс Крюк, окажется его союзником и вообще обаятельным, мужественным парнем с отменным чувством юмора и обеими конечностями. Заручившись поддержкой Тигровой Лилии, принцессы индейского племени, Питер и Крюк поведут недовольных обитателей волшебной страны в бой против коварных узурпаторов…
» Впервые одна из самых популярных сказок в мире выходит на экраны кинотеатров в виде полнометражного игрового фильма. Фантастический бюджет в $100 млн. и новейшие технологии позволили режиссеру Пи Джей Хогану создать потрясающие спецэффекты, благодаря которым стало возможно передать все те волшебства и чудеса, которые были описаны в книге: Нетландию, эльфов и чудесные полеты!
• Качество » BDRip 1080p
• Формат » MKV
• Видео кодек » AVC
• Аудио кодек » AC3
• Видео » AVC, 1920x800 (2.40:1), 23.976 fps, 8 873 Kbps (0.241 bit/pixel)
• Аудио » Русский (AC-3, 48.0 KHz, 6 ch, 384 Kbps, CBR)
• Аудио » Английский (AC-3, 48.0 KHz, 6 ch, 640 Kbps, CBR )


Формат : Matroska
Версия формата : Version 2
Размер файла : 7,71 Гбайт
Продолжительность : 1 ч. 51 м.
Общий поток : 9898 Кбит/сек
Название фильма : ~V ad~
Дата кодирования : UTC 2015-12-30 23:56:08
Программа кодирования : mkvmerge v6.5.0 ('Isn't she lovely') built on Oct 20 2013 12:50:05
Библиотека кодирования : libebml v1.3.0 + libmatroska v1.4.1

Видео
Идентификатор : 1
Формат : AVC
Формат/Информация : Advanced Video Codec
Профиль формата : High@L4.1
Параметр CABAC формата : Да
Параметр ReFrames формата : 5 кадров
Идентификатор кодека : V_MPEG4/ISO/AVC
Продолжительность : 1 ч. 51 м.
Битрейт : 8873 Кбит/сек
Ширина : 1920 пикселей
Высота : 800 пикселей
Соотношение сторон : 2,40:1
Режим частоты кадров : Постоянный
Частота кадров : 23,976 кадра/сек
Цветовое пространство : YUV
Субдискретизация насыщенности : 4:2:0
Битовая глубина : 8 бит
Тип развёртки : Прогрессивная
Бит/(Пиксели*Кадры) : 0.241
Размер потока : 6,76 Гбайт (88%)
Заголовок : ~V~
Библиотека кодирования : x264 core 148 r2579+50 65f745f t_mod_Custom [8-bit@all X86_64]
Настройки программы : cabac=1 / ref=5 / deblock=1:-3:-3 / analyse=0x3:0x133 / me=umh / subme=11 / psy=1 / fade_compensate=0.00 / psy_rd=1.00:0.00 / mixed_ref=1 / me_range=32 / chroma_me=1 / trellis=2 / 8x8dct=1 / cqm=0 / deadzone=21,11 / fast_pskip=0 / chroma_qp_offset=-2 / threads=12 / lookahead_threads=1 / sliced_threads=0 / nr=0 / decimate=0 / interlaced=0 / bluray_compat=0 / constrained_intra=0 / fgo=0 / bframes=9 / b_pyramid=2 / b_adapt=2 / b_bias=0 / direct=3 / weightb=1 / open_gop=0 / weightp=2 / keyint=240 / keyint_min=23 / scenecut=40 / intra_refresh=0 / rc=2pass / mbtree=0 / bitrate=8873 / ratetol=1.0 / qcomp=0.60 / qpmin=0:0:0 / qpmax=69:69:69 / qpstep=4 / cplxblur=20.0 / qblur=0.5 / ip_ratio=1.40 / pb_ratio=1.30 / aq=1:0.80 / aq-sensitivity=11.00 / aq-factor=1.00:1.00:1.00 / aq2=1:0.70 / aq2-sensitivity=10.00 / aq2-factor=1.00:1.00:1.00 / aq3=1:[0.60:0.60]:[0.60:0.60]:[0.60:0.60]:[0.60:0.60] / aq3-sensitivity=9.00 / aq3-factor=[1.00:1.00]:[1.00:1.00]:[1.00:1.00] / aq3-boundary=192:64:24
Язык : English
Default : Да
Forced : Нет

Аудио #1
Идентификатор : 2
Формат : AC-3
Формат/Информация : Audio Coding 3
Расширение режима : CM (complete main)
Параметр Endianness формата : Big
Идентификатор кодека : A_AC3
Продолжительность : 1 ч. 51 м.
Вид битрейта : Постоянный
Битрейт : 384 Кбит/сек
Каналы : 6 каналов
Расположение каналов : Front: L C R, Side: L R, LFE
Частота : 48,0 КГц
Метод сжатия : С потерями
Задержка видео : 2 с. 630 мс.
Размер потока : 306 Мбайт (4%)
Язык : Russian
Default : Да
Forced : Да

Аудио #2
Идентификатор : 3
Формат : AC-3
Формат/Информация : Audio Coding 3
Расширение режима : CM (complete main)
Параметр Endianness формата : Big
Идентификатор кодека : A_AC3
Продолжительность : 1 ч. 51 м.
Вид битрейта : Постоянный
Битрейт : 640 Кбит/сек
Каналы : 6 каналов
Расположение каналов : Front: L C R, Side: L R, LFE
Частота : 48,0 КГц
Метод сжатия : С потерями
Размер потока : 511 Мбайт (6%)
Заголовок : 640
Язык : English
Default : Нет
Forced : Да

Текст
Идентификатор : 4
Формат : UTF-8
Идентификатор кодека : S_TEXT/UTF8
Идентификатор кодека/Информация : UTF-8 Plain Text
Заголовок : Forsed
Язык : Russian
Default : Да
Forced : Да

Меню
00:00:00.000 : en:Chapter 01
00:10:28.044 : en:Chapter 02
00:19:45.809 : en:Chapter 03
00:31:07.282 : en:Chapter 04
00:39:13.893 : en:Chapter 05
00:48:27.738 : en:Chapter 06
01:00:07.520 : en:Chapter 07
01:09:29.331 : en:Chapter 08
01:20:12.432 : en:Chapter 09
01:30:02.855 : en:Chapter 10
01:39:50.985 : en:Chapter 11
01:43:05.888 : en:Chapter 12
скриншот   скриншот   скриншот   скриншот   скриншот   скриншот  
• Релиз-группы: pb.wtf



Скачать Пэн: Путешествие в Нетландию через торрент http://pic1.kartinco.top/images/10/4wbaq.jpg Скачать фильм Пэн: Путешествие в Нетландию через торрент бесплантно в хорошем качестве ОПИСАНИЕ: » Питер Пэн — безграмотный лондонский сирота, в поисках матери и собственного предназначения оказавшийся в Нетландии. Здесь ему ... 10 10 31
Info! Золотая раздача, скачанное не засчитывается.
Торрент: Зарегистрирован [2015-12-31 09:40] · скачан: 966 раз
Статус: √ проверено
Размер: 7.71 GB
Как cкачать? Как скачать Пэн: Путешествие в Нетландию через торрент | qTorrent

% Раздел Тема Автор DL S | L
Ultra HD (UHD: 2K, 4K, 8K) — видео сверхвысокой чёткости [ 48.38 GB ] Пэн: Путешествие в Нетландию / Pan [2015 UHD BDRemux 2160p] - [] sheker187 Скачать
1 | 0
3D Фильмы [ 37.39 GB ] Пэн: Путешествие в Нетландию 3D / Pan 3D [2015 Blu-ray disc 1080p] DUB BD CEE voovaz Скачать
1 | 0
Фильмы 2015 [DVDrip, WEB-DLRip, HDrip] [ 2.19 GB ] Пэн: Путешествие в Нетландию / Pan [2015 HDRip "BD CEE"] coc900 Скачать
1 | 0
Фильмы (HD 720p, 1080p) (48-60 fps) [ 5.19 GB ] Пэн: Путешествие в Нетландию / Pan [2015 BDRip 720p 60fps от еnvy / NNNB] DUB еnvy Скачать
1 | 0
Фильмы (Blu-ray, BD-Remux, HDDVD) [ 23.81 GB ] Пэн: Путешествие в Нетландию / Pan [2015 BD Remux ] Бумер Скачать
1 | 0
Фильмы 2015 [DVDrip, WEB-DLRip, HDrip] [ 1.46 GB ] Пэн: Путешествие в Нетландию / Pan [2015 BDRip] DUB Twi7ter Скачать
2 | 0
3D Фильмы [ 15.03 GB ] Пэн: Путешествие в Нетландию / Pan [2015 BDrip 1080p] DUB OverUnder / Вертикальная стереопара serega768 Скачать
1 | 0

28-11-2019 20:33  

Отключить всю рекламу на сайте

01-01-2016 12:14 Пэн: Путешествие в Нетландию Скачать торрент  

Смотрел в кинотеатре. Советую. Классный фильмец.pb.wtf



10-01-2016 13:15 Пэн: Путешествие в Нетландию Скачать торрент  

Классный фильм очень понравился,советую смотрите не пожалеете!pb.wtf



    Дорогой пользователь! Огромная просьба, поблагодарите релизера, оцените раздачу и оставьте свои комментарий, если Вы скачали Пэн: Путешествие в Нетландию через торрент бесплатно! Внесите свою лепту в развитие PiratBit!
    Комментировать посты могут только пользователи прошедшие не сложную регистрацию
    Показать сообщения:    

    Пэн: Путешествие в Нетландию через торрент
    Скачать бесплатно Пэн: Путешествие в Нетландию
    Пэн: Путешествие в Нетландию скачать торрент
    Пэн: Путешествие в Нетландию смотреть онлайн
    Cкачать фильм Пэн: Путешествие в Нетландию бесплатно
    Пэн: Путешествие в Нетландию скачать торрент в хорошем качестве
    Пэн: Путешествие в Нетландию смотреть онлайн бесплатно в хорошем качестве


    Вы не можете начинать темы
    Вы не можете отвечать на сообщения
    Вы не можете редактировать свои сообщения
    Вы не можете удалять свои сообщения
    Вы не можете голосовать в опросах
    Вы не можете прикреплять файлы к сообщениям
    Вы можете скачивать файлы