Ссылка на приватное зеркало всего за 1$. Внимание количество ограничено!!!

OK

1+1

iTunes

мы

OK

1

WEB-DLRip

Джокер

Пифагор

Ведьмак / The Witcher сериал

iTunes

ПШазам

ОК

Оно 2

iTunes

30
pack

Вам бонус

ВАЖНО

!!Акция!!

Alien_RageХит недели

RePack

Resident Evil 21

ИГРА 18+

pack

RePack

jed

RePack

fifa19

RePack

Assassins Creed: Odyssey

RePack

NEED FOR SPEED™ PAYBACK

4 сезон

9 сезон

Бесстыжие 9 сезон

Все сериалы

все сериалы на PB.wtf

RePack

FAR CRY 5
  

Пэн: Путешествие в Нетландию / Pan (Джо Райт) [2015, Фэнтези, Приключения, Семейный, HDRip] DUB [iTunes] pb.wtf

Пэн: Путешествие в Нетландию через торрент pb.wtf

Размер: 2.06 GB | Добавлен: 4 года назад | Торрент скачан:183 раза
Скачать  

31-12-2015 10:12 Пэн: Путешествие в Нетландию Скачать торрент  

«У каждой легенды есть своё начало»
Год выпуска » 2015
Страна » США, Великобритания, Австралия (Warner Bros. Pictures, RatPac-Dune Entertainment)
Жанр » Фэнтези, Приключения, Семейный
Продолжительность » 01:51:32
Перевод » Дублированное [iTunes]
Субтитры » Отсутствуют

В ролях
» Хью Джекман, Леви Миллер, Гаррет Хедлунд, Руни Мара, Аманда Сайфред, Кара Делевинь, Нонсо Анози, Пол Кэй, Эмиральд Феннел, Адиль Ахтар


Режиссёр
» Джо Райт
ОПИСАНИЕ:
» Питер Пэн — безграмотный лондонский сирота, в поисках матери и собственного предназначения оказавшийся в Нетландии. Здесь ему предстоит стать не кем иным, как лидером восстания местных жителей против злых пиратов, которое возглавляет капитан Черная борода. А вот вечный враг Пэна, Джеймс Крюк, окажется его союзником и вообще обаятельным, мужественным парнем с отменным чувством юмора и обеими конечностями. Заручившись поддержкой Тигровой Лилии, принцессы индейского племени, Питер и Крюк поведут недовольных обитателей волшебной страны в бой против коварных узурпаторов…
» Впервые одна из самых популярных сказок в мире выходит на экраны кинотеатров в виде полнометражного игрового фильма. Фантастический бюджет в $100 млн. и новейшие технологии позволили режиссеру Пи Джей Хогану создать потрясающие спецэффекты, благодаря которым стало возможно передать все те волшебства и чудеса, которые были описаны в книге: Нетландию, эльфов и чудесные полеты!
• Качество » HDRip
• Формат » AVI
• Видео кодек » XviD
• Аудио кодек » AC3
• Видео » MPEG4, XviD, 720x304 (2.35:1), 23.976 fps, 1855 Kbps (0.262 bit/pixel)
• Аудио » Русский (AC-3, 48.0 KHz, 6 ch, 384 Kbps, CBR)
• Аудио » Английский (AC-3, 48.0 KHz, 6 ch, 384 Kbps, CBR)


Общее
Полное имя : E:\Pan.2015.D.HDRip.2100MB.avi
Формат : AVI
Формат/Информация : Audio Video Interleave
Профиль формата : OpenDML
Размер файла : 2,06 Гбайт
Продолжительность : 1 ч. 51 м.
Общий поток : 2641 Кбит/сек
Программа кодирования : VirtualDubMod 1.5.10.2 (build 2540/release)
Библиотека кодирования : VirtualDubMod build 2540/release

Видео
Идентификатор : 0
Формат : MPEG-4 Visual
Профиль формата : Advanced Simple@L5
Параметр BVOP формата : 2
Параметр QPel формата : Нет
Параметр GMC формата : Без точки перехода
Параметр матрицы формата : Выборочная
Идентификатор кодека : XVID
Идентификатор кодека/Подсказка : XviD
Продолжительность : 1 ч. 51 м.
Битрейт : 1855 Кбит/сек
Ширина : 720 пикселей
Высота : 304 пикселя
Соотношение сторон : 2,35:1
Частота кадров : 23,976 кадра/сек
Цветовое пространство : YUV
Субдискретизация насыщенности : 4:2:0
Битовая глубина : 8 бит
Тип развёртки : Прогрессивная
Метод сжатия : С потерями
Бит/(Пиксели*Кадры) : 0.353
Размер потока : 1,44 Гбайт (70%)
Библиотека кодирования : XviD 1.2.1 (UTC 2008-12-04)

Аудио #1
Идентификатор : 1
Формат : AC-3
Формат/Информация : Audio Coding 3
Расширение режима : CM (complete main)
Параметр Endianness формата : Big
Идентификатор кодека : 2000
Продолжительность : 1 ч. 51 м.
Вид битрейта : Постоянный
Битрейт : 384 Кбит/сек
Каналы : 6 каналов
Расположение каналов : Front: L C R, Side: L R, LFE
Частота : 48,0 КГц
Битовая глубина : 16 бит
Метод сжатия : С потерями
Задержка видео : 2 с. 615 мс.
Размер потока : 306 Мбайт (15%)
Выравнивание : Разделение по промежуткам
Продолжительность промежутка : 42 мс. (1,00 видеокадр)
Время предзагрузки промежутка : 500 мс.

Аудио #2
Идентификатор : 2
Формат : AC-3
Формат/Информация : Audio Coding 3
Расширение режима : CM (complete main)
Параметр Endianness формата : Big
Идентификатор кодека : 2000
Продолжительность : 1 ч. 51 м.
Вид битрейта : Постоянный
Битрейт : 384 Кбит/сек
Каналы : 6 каналов
Расположение каналов : Front: L C R, Side: L R, LFE
Частота : 48,0 КГц
Битовая глубина : 16 бит
Метод сжатия : С потерями
Размер потока : 306 Мбайт (15%)
Выравнивание : Разделение по промежуткам
Продолжительность промежутка : 42 мс. (1,00 видеокадр)
Время предзагрузки промежутка : 500 мс.
скриншот   скриншот   скриншот   скриншот   скриншот   скриншот  
pb.wtf



Скачать Пэн: Путешествие в Нетландию через торрент http://pic1.kartinco.top/images/10/4wbaq.jpg Скачать фильм Пэн: Путешествие в Нетландию через торрент бесплантно в хорошем качестве ОПИСАНИЕ: » Питер Пэн — безграмотный лондонский сирота, в поисках матери и собственного предназначения оказавшийся в Нетландии. Здесь ему ... 10 10 6
Торрент: Зарегистрирован [2015-12-31 10:12] · скачан: 183 раз
Статус: √ проверено
Размер: 2.06 GB
Как cкачать? Как скачать Пэн: Путешествие в Нетландию через торрент | qTorrent

% Раздел Тема Автор DL S | L
Ultra HD (UHD: 2K, 4K, 8K) — видео сверхвысокой чёткости [ 48.38 GB ] Пэн: Путешествие в Нетландию / Pan [2015 UHD BDRemux 2160p] - [] sheker187 Скачать
1 | 0
3D Фильмы [ 37.39 GB ] Пэн: Путешествие в Нетландию 3D / Pan 3D [2015 Blu-ray disc 1080p] DUB BD CEE voovaz Скачать
1 | 0
Фильмы 2015 [DVDrip, WEB-DLRip, HDrip] [ 2.19 GB ] Пэн: Путешествие в Нетландию / Pan [2015 HDRip "BD CEE"] coc900 Скачать
1 | 0
Фильмы (HD 720p, 1080p) (48-60 fps) [ 5.19 GB ] Пэн: Путешествие в Нетландию / Pan [2015 BDRip 720p 60fps от еnvy / NNNB] DUB еnvy Скачать
2 | 0
Фильмы (Blu-ray, BD-Remux, HDDVD) [ 23.81 GB ] Пэн: Путешествие в Нетландию / Pan [2015 BD Remux ] Бумер Скачать
1 | 0
Фильмы 2015 [DVDrip, WEB-DLRip, HDrip] [ 1.46 GB ] Пэн: Путешествие в Нетландию / Pan [2015 BDRip] DUB Twi7ter Скачать
2 | 0
3D Фильмы [ 15.03 GB ] Пэн: Путешествие в Нетландию / Pan [2015 BDrip 1080p] DUB OverUnder / Вертикальная стереопара serega768 Скачать
2 | 0


Последний раз редактировалось: $-DRON-$ (2015-12-31 10:27), всего редактировалось 1 раз

28-11-2019 20:33  

Отключить всю рекламу на сайте

31-12-2015 10:17 Пэн: Путешествие в Нетландию Скачать торрент  

Где Аудио #2???pb.wtf



    Дорогой пользователь! Огромная просьба, поблагодарите релизера, оцените раздачу и оставьте свои комментарий, если Вы скачали Пэн: Путешествие в Нетландию через торрент бесплатно! Внесите свою лепту в развитие PiratBit!
    Комментировать посты могут только пользователи прошедшие не сложную регистрацию
    Показать сообщения:    

    Пэн: Путешествие в Нетландию через торрент
    Скачать бесплатно Пэн: Путешествие в Нетландию
    Пэн: Путешествие в Нетландию скачать торрент
    Пэн: Путешествие в Нетландию смотреть онлайн
    Cкачать фильм Пэн: Путешествие в Нетландию бесплатно
    Пэн: Путешествие в Нетландию скачать торрент в хорошем качестве
    Пэн: Путешествие в Нетландию смотреть онлайн бесплатно в хорошем качестве


    Вы не можете начинать темы
    Вы не можете отвечать на сообщения
    Вы не можете редактировать свои сообщения
    Вы не можете удалять свои сообщения
    Вы не можете голосовать в опросах
    Вы не можете прикреплять файлы к сообщениям
    Вы можете скачивать файлы