Ссылка на приватное зеркало всего за 1$. Внимание количество ограничено!!!

OK

1+1

iTunes

мы

OK

1

WEB-DLRip

Джокер

Пифагор

Ведьмак / The Witcher сериал

iTunes

ПШазам

ОК

Оно 2

iTunes

30
pack

Вам бонус

ВАЖНО

!!Акция!!

Alien_RageХит недели

RePack

Resident Evil 21

ИГРА 18+

pack

RePack

jed

RePack

fifa19

RePack

Assassins Creed: Odyssey

RePack

NEED FOR SPEED™ PAYBACK

4 сезон

9 сезон

Бесстыжие 9 сезон

Все сериалы

все сериалы на PB.wtf

RePack

FAR CRY 5
  

Марсианин / The Martian (Ридли Скотт) [2015 г., фантастика, приключения, HDRip, Дубляж "Лицензия"] pb.wtf

Марсианин через торрент pb.wtf

Размер: 2.18 GB | Добавлен: 4 года назад | Торрент скачан:750 раз
Скачать  

31-12-2015 16:18 Марсианин Скачать торрент  

Марсианин / The Martian
Год выпуска: 2015
Страна: США, Великобритания / Twentieth Century Fox Film Corporation, TSG Entertainment, Scott Free Productions
Жанр: фантастика, приключения
Продолжительность: 02:21:37
Перевод: Дубляж (Лицензия)

Режиссер: Ридли Скотт

IMDB 8.20 (224 830)


В ролях: Мэтт Дэймон, Джессика Честейн, Чиветель Эджиофор, Кристен Уиг, Джефф Дэниелс, Майкл Пенья, Шон Бин, Кейт Мара, Себастьян Стэн, Аксель Хенни

Описание: Марсианская миссия «Арес-3» в процессе работы была вынуждена экстренно покинуть планету из-за надвигающейся песчаной бури. Инженер и биолог Марк Уотни получил повреждение скафандра во время песчаной бури. Сотрудники миссии, посчитав его погибшим, эвакуировались с планеты, оставив Марка одного.Очнувшись, Уотни обнаруживает, что связь с Землёй отсутствует, но при этом полностью функционирует жилой модуль. Главный герой начинает искать способ продержаться на имеющихся запасах еды, витаминов, воды и воздуха ещё 4 года до прилёта следующей миссии «Арес-4».

Качество: HDRip
Формат: AVI
Видео кодек: XviD
Аудио кодек: AC3
Видео: 720x304 (2.37:1), 23.976 fps, XviD build 50 ~1749 kbps avg, 0.33 bit/pixel
Аудио: 48 kHz, AC3 Dolby Digital, 3/2 (L,C,R,l,r) + LFE ch, ~448 kbps
скриншот   скриншот   скриншот   скриншот   скриншот   скриншот   скриншот   скриншот   скриншот   скриншот  

Общее
Полное имя : F:\кино\Марсианин.2015.D.HDRip.avi
Формат : AVI
Формат/Информация : Audio Video Interleave
Профиль формата : OpenDML
Размер файла : 2,18 Гбайт
Продолжительность : 2 ч. 21 м.
Общий поток : 2204 Кбит/сек
Программа кодирования : VirtualDubMod 1.5.10.3 | www.virtualdub-fr.org || (build 2550/release)
Библиотека кодирования : VirtualDubMod build 2550/release

Видео
Идентификатор : 0
Формат : MPEG-4 Visual
Профиль формата : Advanced Simple@L5
Параметр BVOP формата : 2
Параметр QPel формата : Нет
Параметр GMC формата : Без точки перехода
Параметр матрицы формата : Default (H.263)
Идентификатор кодека : XVID
Идентификатор кодека/Подсказка : XviD
Продолжительность : 2 ч. 21 м.
Битрейт : 1744 Кбит/сек
Ширина : 720 пикселей
Высота : 304 пикселя
Соотношение сторон : 2,35:1
Частота кадров : 23,976 (23976/1000) кадра/сек
Цветовое пространство : YUV
Субдискретизация насыщенности : 4:2:0
Битовая глубина : 8 бит
Тип развёртки : Прогрессивная
Метод сжатия : С потерями
Бит/(Пиксели*Кадры) : 0.332
Размер потока : 1,73 Гбайт (79%)
Библиотека кодирования : XviD 1.2.1 (UTC 2008-12-04)

Аудио
Идентификатор : 1
Формат : AC-3
Формат/Информация : Audio Coding 3
Расширение режима : CM (complete main)
Параметр Endianness формата : Big
Идентификатор кодека : 2000
Продолжительность : 2 ч. 21 м.
Вид битрейта : Постоянный
Битрейт : 448 Кбит/сек
Каналы : 6 каналов
Расположение каналов : Front: L C R, Side: L R, LFE
Частота : 48,0 КГц
Частота кадров : 31,250 кадров/сек (1536 spf)
Метод сжатия : С потерями
Размер потока : 454 Мбайт (20%)
Выравнивание : Разделение по промежуткам
Продолжительность промежутка : 42 мс. (1,00 видеокадр)
Время предзагрузки промежутка : 500 мс.

pb.wtf



Скачать Марсианин через торрент http://pic.kartinco.top/images/11/k3l4z.jpg Скачать фильм Марсианин через торрент бесплантно в хорошем качестве Описание: Марсианская миссия «Арес-3» в процессе работы была вынуждена экстренно покинуть планету из-за надвигающейся песчаной бури. ... 10 10 27
Торрент: Зарегистрирован [2016-01-10 17:37] · скачан: 750 раз
Статус: √ проверено
Размер: 2.18 GB
Как cкачать? Как скачать Марсианин через торрент | qTorrent

% Раздел Тема Автор DL S | L
Ultra HD (UHD: 2K, 4K, 8K) — видео сверхвысокой чёткости [ 46.21 GB ] Марсианин / The Martian [2015 UHD Blu-ray 2160p] [Театральная версия] sheker187 Скачать
1 | 0
Ultra HD (UHD: 2K, 4K, 8K) — видео сверхвысокой чёткости [ 15.76 GB ] Марсианин / The Martian [2015 UHD BDRip 2160p] DUB + AVO [Extended Cut] sheker187 Скачать
3 | 0
Фильмы [HD 720p, 1080p] (Хороший звук DUB, MVO) [ 6.97 GB ] Марсианин / The Martian [2015 BDRip 1080p HEVC ()] Мичман37 Скачать
2 | 0
Фильмы [HD 720p, 1080p] (Хороший звук DUB, MVO) [ 6.44 GB ] Марсианин / The Martian [2015 BDRip-HEVC 1080p ] [Расширенная версия] DUB [] bober100 Скачать
2 | 0
Фильмы (Blu-ray, BD-Remux, HDDVD) [ 32.03 GB ] Марсианин / The Martian [2015 BD Remux ] Ворон Скачать
1 | 0
Ultra HD (UHD: 2K, 4K, 8K) — видео сверхвысокой чёткости [ 47.74 GB ] Марсианин / The Martian [2015 UHD BDRemux 2160p] [Theatrical Cut] DUB + 3xAVO sheker187 Скачать
1 | 0
Фильмы с авторской озвучкой [ 2.9 GB ] Марсианин / The Martian [2015 BDRip-AVC] [Театральная версия] [AVO] killermax2013 Скачать
1 | 0


Последний раз редактировалось: coc900 (2016-01-10 17:40), всего редактировалось 1 раз

28-11-2019 20:33  

Отключить всю рекламу на сайте

10-01-2016 17:40 Марсианин Скачать торрент  

Релиз обновлен ! Просьба перекачать торрент файл! pb.wtf



11-01-2016 12:08 Марсианин Скачать торрент  

Спасибо за труды!pb.wtf



    Дорогой пользователь! Огромная просьба, поблагодарите релизера, оцените раздачу и оставьте свои комментарий, если Вы скачали Марсианин через торрент бесплатно! Внесите свою лепту в развитие PiratBit!
    Комментировать посты могут только пользователи прошедшие не сложную регистрацию
    Показать сообщения:    

    Марсианин через торрент
    Скачать бесплатно Марсианин
    Марсианин скачать торрент
    Марсианин смотреть онлайн
    Cкачать фильм Марсианин бесплатно
    Марсианин скачать торрент в хорошем качестве
    Марсианин смотреть онлайн бесплатно в хорошем качестве


    Вы не можете начинать темы
    Вы не можете отвечать на сообщения
    Вы не можете редактировать свои сообщения
    Вы не можете удалять свои сообщения
    Вы не можете голосовать в опросах
    Вы не можете прикреплять файлы к сообщениям
    Вы можете скачивать файлы