Всегда рабочее зеркало без VPN и Proxy просто перед .vidak.icu напиши любое слово или цифру, Пример http://05hd.vidak.icu

MVO

MVO

1 сезон

1

1 сезон

iTunes

1 сезон

13

1 сезон

Deluxe

pack

Рекомендуем

Repack

30

ВАЖНО

RePack

MK11

RePack

jed

RePack

fifa19

RePack

RDR2

RePack

NEED FOR SPEED™ PAYBACK

Кинопоиск HD

6 сезон

 Острые козырьки 6 сезон

Все сериалы

все сериалы на PB.wtf

RePack

FAR CRY 5
  
Magnet ссылка

Упс… Ной уплыл! / Ooops! Noah is Gone... (Тоби Генкель / Toby Genkel, Шон МакКормак / Sean McCormack) [2015, мультфильм, комедия, приключения, BDRip-AVC от potroks] Dub [iTunes] pb.wtf

Упс… Ной уплыл! через торрент pb.wtf

Размер: 2.18 GB | Добавлен: 6 лет 7 мес. назад | Торрент скачан:700 раз
Смотреть онлайн Упс… Ной уплыл! | Скачать    Ребята, помогите собрать деньги на оплату серверов!!!

31-12-2015 16:27 Упс… Ной уплыл! Скачать торрент  

Упс… Ной уплыл! / Ooops! Noah is Gone...
«1 ark. 50,000 animals. What could go wrong?»
Год выпуска: 2015
Страна: Германия, Бельгия, Люксембург, Ирландия / Ulysses Filmproduktion...
Жанр: мультфильм, комедия, приключения
Продолжительность: 01:26:27
Перевод: Дубляж [iTunes]
Навигация по главам: есть
Режиссер: Тоби Генкель / Toby Genkel, Шон МакКормак / Sean McCormack
В ролях:

Дермот Магеннис (Dave / Mr. Griffin / Prairie Dog, озвучка), Каллум Малони (Finny, озвучка), Тара Флинн (Hazel, озвучка), Ава Коннолли (Leah, озвучка), Пол Тайлак (Obesey / Stayput / Chimpanzee, озвучка), Алан Стэнфорд (Lion, озвучка), Эйлин Митен (Mrs. Griffin / Flamingo / Mrs. Guard / Margaret, озвучка), Патрик Фицсимонс (Tanglefoot / Mr. Guard / Siberian Tiger, озвучка), Карла Бекер (Rhinoceros, озвучка), Франциска Фриде (Baby Hippopotamus #1 / Songbird #1, озвучка), Лотта Долл (Baby Hippopotamus #2, озвучка), Тина Эшманн (Songbird #2, озвучка)
Описание: Грядет всемирный потоп, и старина Ной вот-вот отчалит. Самое время для зверей занять свои каюты. Но, увы, повезло не всем - кое-кто фейсконтроль не прошел. Теперь ему придется как следует постараться, чтобы перехитрить судьбу и заскочить на подножку уплывающего ковчега.

Качество: BDRip-AVC
Формат: MKV
Видео кодек: AVC
Аудио кодек: AC3
Видео: 1156x624 (1.853), 2780 kbps, 24 fps, 0.161 bit/pixel
Аудио#1: AC3 / 5.1 / 48 kHz / 384 kbps / 16 bit | RUS
Аудио#2: AC3 / 5.1 / 48 kHz / 448 kbps / 16 bit | ENG

Релиз группы:
Автор рипа: potroks

Код:

General
Unique ID                   : 186418516149938358581827414675030264175 (0x8C3EE67666647E669EF07FF386D3C96F)
Complete name               : N:\Мульты\Ups.Noy.Uplyl.2015.DUAL.BDRip.x264.-HELLYWOOD.mkv
Format                      : Matroska
Format version              : Version 4 / Version 2
File size                   : 2.18 GiB
Duration                    : 1h 26mn
Overall bit rate            : 3 612 Kbps
Movie name                  : Ooops! Noah is Gone... (2015) - HELLYWOOD
Encoded date                : UTC 2010-02-22 21:41:31
Writing application         : mkvmerge v5.8.0 ('No Sleep / Pillow') built on Sep 30 2012 10:57:14
Writing library             : libebml v1.3.0 + libmatroska v1.4.0

Video
ID                          : 1
Format                      : AVC
Format/Info                 : Advanced Video Codec
Format profile              : [email protected]
Format settings, CABAC      : Yes
Format settings, ReFrames   : 10 frames
Codec ID                    : V_MPEG4/ISO/AVC
Duration                    : 1h 26mn
Bit rate                    : 2 780 Kbps
Width                       : 1 156 pixels
Height                      : 624 pixels
Display aspect ratio        : 1.85:1
Frame rate mode             : Constant
Frame rate                  : 24.000 fps
Color space                 : YUV
Chroma subsampling          : 4:2:0
Bit depth                   : 8 bits
Scan type                   : Progressive
Bits/(Pixel*Frame)          : 0.161
Stream size                 : 1.64 GiB (75%)
Title                       : potroks
Writing library             : x264 core 146 r2538 121396c
Encoding settings           : cabac=1 / ref=10 / deblock=1:-1:-1 / analyse=0x3:0x113 / me=umh / subme=11 / psy=1 / psy_rd=1.05:0.10 / mixed_ref=1 / me_range=32 / chroma_me=1 / trellis=2 / 8x8dct=1 / cqm=0 / deadzone=21,11 / fast_pskip=0 / chroma_qp_offset=-3 / threads=9 / lookahead_threads=2 / sliced_threads=0 / nr=0 / decimate=0 / interlaced=0 / bluray_compat=0 / constrained_intra=0 / bframes=11 / b_pyramid=2 / b_adapt=2 / b_bias=0 / direct=3 / weightb=1 / open_gop=0 / weightp=2 / keyint=240 / keyint_min=23 / scenecut=40 / intra_refresh=0 / rc_lookahead=60 / rc=2pass / mbtree=0 / bitrate=2780 / ratetol=1.0 / qcomp=0.70 / qpmin=0 / qpmax=69 / qpstep=4 / cplxblur=20.0 / qblur=0.5 / vbv_maxrate=14000 / vbv_bufsize=14000 / nal_hrd=none / filler=0 / ip_ratio=1.40 / pb_ratio=1.30 / aq=1:0.80
Language                    : English
Default                     : Yes
Forced                      : No

Audio #1
ID                          : 2
Format                      : AC-3
Format/Info                 : Audio Coding 3
Mode extension              : CM (complete main)
Format settings, Endianness : Big
Codec ID                    : A_AC3
Duration                    : 1h 26mn
Bit rate mode               : Constant
Bit rate                    : 384 Kbps
Channel(s)                  : 6 channels
Channel positions           : Front: L C R, Side: L R, LFE
Sampling rate               : 48.0 KHz
Frame rate                  : 31.250 fps (1536 spf)
Compression mode            : Lossy
Stream size                 : 237 MiB (11%)
Title                       : Dub | DD 5.1 @ 384 kbps - iTunes
Language                    : Russian
Default                     : Yes
Forced                      : No

Audio #2
ID                          : 3
Format                      : AC-3
Format/Info                 : Audio Coding 3
Mode extension              : CM (complete main)
Format settings, Endianness : Big
Codec ID                    : A_AC3
Duration                    : 1h 26mn
Bit rate mode               : Constant
Bit rate                    : 448 Kbps
Channel(s)                  : 6 channels
Channel positions           : Front: L C R, Side: L R, LFE
Sampling rate               : 48.0 KHz
Frame rate                  : 31.250 fps (1536 spf)
Compression mode            : Lossy
Stream size                 : 277 MiB (12%)
Title                       : Original | DD 5.1 @ 448 kbps
Language                    : English
Default                     : No
Forced                      : No

Menu
00:00:00.000                : en:(01)00:00:00:000
00:11:23.666                : en:(02)00:11:23:666
00:23:23.375                : en:(03)00:23:23:375
00:33:47.750                : en:(04)00:33:47:750
00:44:26.333                : en:(05)00:44:26:333
00:54:39.666                : en:(06)00:54:39:666
01:06:37.333                : en:(07)01:06:37:333
01:17:07.958                : en:(08)01:17:07:958

pb.wtf



Скачать Упс… Ной уплыл! через торрент http://i73.fastpic.ru/big/2015/1231/48/109468be338c8c22fdeb436a9a9e0248.png Скачать, смотреть онлайн Упс… Ной уплыл! бесплантно в хорошем качестве Описание: Грядет всемирный потоп, и старина Ной вот-вот отчалит. Самое время для зверей занять свои каюты. Но, увы, повезло не всем - ... 10 10 15
Info! Золотая раздача, скачанное не засчитывается.
Торрент: Зарегистрирован [2015-12-31 16:27] · скачан: 700 раз
Статус: √ проверено
Размер: 2.18 GB
Как cкачать? Как скачать Упс… Ной уплыл! через торрент | UTorrent

% Раздел Тема Автор DL S | L
Иностранные мультфильмы [ 1.46 GB ] Упс… Ной уплыл! / Ooops! Noah is Gone... [2015 мультфильм BDRip-AVC] Dub potroks Скачать
1 | 0
Мультфильмы (48-60 fps) [ 4.86 GB ] Упс… Ной уплыл! / Ooops! Noah is Gone... [2015 Мультфильм BDRip 720p ] 60fps от mimok mimok Скачать
1 | 0
T Зарубежные Мультфильмы (BDRip 1080p, 720p, Blu-ray, BD-Remux) [ 4.02 GB ] Упс… Ной уплыл! / Ooops! Noah is Gone... [2015 мультфильм BDRip 720p] DUB - / Newton5 Скачать
1 | 0
Зарубежные Мультфильмы (BDRip 1080p, 720p, Blu-ray, BD-Remux) [ 7.28 GB ] Упс… Ной уплыл! / Ooops! Noah is Gone... [2015 мультфильм BDRip 1080p Pavlin Скачать
1 | 0
Иностранные мультфильмы [ 1.37 GB ] Упс… Ной уплыл! / Ooops! Noah is Gone... [2015 мультфильм HDRip] diletant Скачать
1 | 0

28-11-2019 20:33  

Отключить вcю реклaмy на сайте

    Дорогой пользователь! Огромная просьба, поблагодарите релизера, оцените раздачу и оставьте свои комментарий, если Вы скачали Упс… Ной уплыл! через торрент бесплатно!
    Комментировать посты могут только пользователи прошедшие не сложную регистрацию
    Показать сообщения:    

    Упс… Ной уплыл! через торрент
    Скачать бесплатно Упс… Ной уплыл!
    Упс… Ной уплыл! скачать торрент
    Упс… Ной уплыл! смотреть онлайн
    Cкачать фильм Упс… Ной уплыл! бесплатно
    Упс… Ной уплыл! скачать торрент в хорошем качестве
    Упс… Ной уплыл! смотреть онлайн бесплатно в хорошем качестве


    Вы не можете начинать темы
    Вы не можете отвечать на сообщения
    Вы не можете редактировать свои сообщения
    Вы не можете удалять свои сообщения
    Вы не можете голосовать в опросах
    Вы не можете прикреплять файлы к сообщениям
    Вы можете скачивать файлы