Ссылка на приватное зеркало всего за 1$. Внимание количество ограничено!!!

iTunes

iTunes

iTunes

1

iTunes

iTunes

iTunes

iTunes

iTunes

30
pack

$ от Little Big

ВАЖНО

!!Акция!!

Alien_RageХит недели

RePack

Resident Evil 21

ИГРА 18+

pack

RePack

jed

!!Акция!!

Alien_Rage

RePack

fifa19

RePack

Assassins Creed: Odyssey

RePack

NEED FOR SPEED™ PAYBACK

4 сезон

9 сезон

Бесстыжие 9 сезон

Все сериалы

все сериалы на PB.wtf

RePack

FAR CRY 5
  

Стажёр / The Intern (Нэнси Майерс) [2015, мелодрама, комедия, WEB-DL 1080p, Дубляж] iTunes pb.wtf

Стажёр через торрент pb.wtf

Размер: 4.96 GB | Добавлен: 4 года 6 мес. назад | Торрент скачан:1587 раз
Скачать  

01-01-2016 09:13 Стажёр Скачать торрент  

Стажёр / The Intern«Опыт всегда в моде»

  • Год выхода: 2015
  • Жанр: мелодрама, комедия

  • Страна: США
  • Продолжительность: 02:01:35
  • Перевод: Дубляж - [Лицензия / iTunes]
  • Cубтитры: русские (Forced, iTunes), русские (iTunes), английские (iTunes)
  • Режиссер: Нэнси Майерс
  • В ролях:

    Роберт Де Ниро (Ben), Энн Хэтэуэй (Jules), Рене Руссо (Fiona), Андерс Холм (Matt), ДжоДжо Кушнер (Paige), Эндрю Рэннеллс (Cameron), Адам Дивайн (Jason), Илан Кригсфелд (Neighborhood Watch), Зак Перлман (Davis), Джейсон Орли (Lewis), Кристина Шерер (Becky), Нат Вулф (Justin)


  • 70-летний вдовец Бен Уитакер обнаруживает, что выход на пенсию - еще не конец. Пользуясь случаем, он становится старшим стажером в интернет-магазине модной одежды под руководством Джулс Остин.

  • Качество: WEB-DL 1080p
  • Формат: MKV
  • Видео кодек: AVC
  • Аудио кодек: AC3
  • Видео: AVC, 1912x1072 (16:9), 4953 kbps, 23,976 fps, 0,101 bpp
  • Аудио №1: русский / AC3 / 5.1 / 48 kHz / 384 kbps / 16 bit ||
  • Аудио №2: английский / AC3 / 5.1 / 48 kHz / 384 kbps / 16 bit
  • Навигация по главам: есть
  • Релиз от:

    Код:

    General
    Unique ID                                : 213349509167359519806622100574910940070 (0xA0819EEEE2303DB2AA0733A0005A03A6)
    Complete name                            : H:\The.Intern.2015.1080p.WEB-DL.Rus.Eng.HDCLUB.mkv
    Format                                   : Matroska
    Format version                           : Version 2
    File size                                : 4.96 GiB
    Duration                                 : 2h 1mn
    Overall bit rate                         : 5 838 Kbps
    Movie name                               : The Intern (2015) - Release for HDCLUB
    Encoded date                             : UTC 2015-12-30 21:43:41
    Writing application                      : mkvmerge v3.4.0 ('Rapunzel') built on May 15 2010 09:38:20
    Writing library                          : libebml v0.8.0 + libmatroska v0.9.0
    Attachment                               : Yes / Yes / Yes / Yes

    Video
    ID                                       : 1
    Format                                   : AVC
    Format/Info                              : Advanced Video Codec
    Format profile                           : High@L4.0
    Format settings, CABAC                   : Yes
    Format settings, ReFrames                : 4 frames
    Codec ID                                 : V_MPEG4/ISO/AVC
    Duration                                 : 2h 1mn
    Bit rate                                 : 4 953 Kbps
    Width                                    : 1 912 pixels
    Height                                   : 1 072 pixels
    Display aspect ratio                     : 16:9
    Frame rate                               : 23.976 fps
    Color space                              : YUV
    Chroma subsampling                       : 4:2:0
    Bit depth                                : 8 bits
    Scan type                                : Progressive
    Bits/(Pixel*Frame)                       : 0.101
    Stream size                              : 4.21 GiB (85%)
    Title                                    : The Intern (2015) - Release for HDCLUB
    Language                                 : English
    Default                                  : Yes
    Forced                                   : No
    Color primaries                          : BT.709-5, BT.1361, IEC 61966-2-4, SMPTE RP177
    Transfer characteristics                 : BT.709-5, BT.1361
    Matrix coefficients                      : BT.709-5, BT.1361, IEC 61966-2-4 709, SMPTE RP177

    Audio #1
    ID                                       : 2
    Format                                   : AC-3
    Format/Info                              : Audio Coding 3
    Mode extension                           : CM (complete main)
    Codec ID                                 : A_AC3
    Duration                                 : 2h 1mn
    Bit rate mode                            : Constant
    Bit rate                                 : 384 Kbps
    Channel(s)                               : 6 channels
    Channel positions                        : Front: L C R, Side: L R, LFE
    Sampling rate                            : 48.0 KHz
    Bit depth                                : 16 bits
    Compression mode                         : Lossy
    Stream size                              : 334 MiB (7%)
    Title                                    : AC3 5.1 @ 384 kbps - DUB, iTunes
    Language                                 : Russian
    Default                                  : Yes
    Forced                                   : No

    Audio #2
    ID                                       : 3
    Format                                   : AC-3
    Format/Info                              : Audio Coding 3
    Mode extension                           : CM (complete main)
    Codec ID                                 : A_AC3
    Duration                                 : 2h 1mn
    Bit rate mode                            : Constant
    Bit rate                                 : 384 Kbps
    Channel(s)                               : 6 channels
    Channel positions                        : Front: L C R, Side: L R, LFE
    Sampling rate                            : 48.0 KHz
    Bit depth                                : 16 bits
    Compression mode                         : Lossy
    Stream size                              : 334 MiB (7%)
    Title                                    : AC3 5.1 @ 384 kbps
    Language                                 : English
    Default                                  : No
    Forced                                   : No

    Text #1
    ID                                       : 4
    Format                                   : UTF-8
    Codec ID                                 : S_TEXT/UTF8
    Codec ID/Info                            : UTF-8 Plain Text
    Title                                    : Forced, iTunes
    Language                                 : Russian
    Default                                  : Yes
    Forced                                   : No

    Text #2
    ID                                       : 5
    Format                                   : UTF-8
    Codec ID                                 : S_TEXT/UTF8
    Codec ID/Info                            : UTF-8 Plain Text
    Title                                    : iTunes
    Language                                 : Russian
    Default                                  : No
    Forced                                   : No

    Text #3
    ID                                       : 6
    Format                                   : UTF-8
    Codec ID                                 : S_TEXT/UTF8
    Codec ID/Info                            : UTF-8 Plain Text
    Title                                    : iTunes
    Language                                 : English
    Default                                  : No
    Forced                                   : No

    Menu
    00:00:00.000                             : en:1
    00:09:30.000                             : en:2
    00:19:54.000                             : en:3
    00:29:39.000                             : en:4
    00:30:29.000                             : en:5
    00:41:17.000                             : en:6
    00:50:18.000                             : en:7
    01:00:33.000                             : en:8
    01:10:18.000                             : en:9
    01:19:15.000                             : en:10
    01:30:58.000                             : en:11
    01:42:48.000                             : en:12
    01:51:10.000                             : en:13
    01:56:41.000                             : en:14

    Скриншоты:


    © Оформление by -Lexx- pb.wtf



  • Скачать Стажёр через торрент http://pic.kartinco.top/images/6/stazu.jpg Скачать фильм Стажёр через торрент бесплантно в хорошем качестве qw.png 70-летний вдовец Бен Уитакер обнаруживает, что выход на пенсию - еще не конец. Пользуясь случаем, он становится старшим стажером в ... 9.7 10 30
    Info! Золотая раздача, скачанное не засчитывается.
    Торрент: Зарегистрирован [2016-01-01 09:13] · скачан: 1 587 раз
    Статус: √ проверено
    Размер: 4.96 GB
    Как cкачать? Как скачать Стажёр через торрент | qTorrent

    % Раздел Тема Автор DL S | L
    R.G. Resident & PiratVoice - Фильмы, Видео [ 11.12 GB ] Стажёр / The Intern [2015 BDRip 1080p ] schultz Скачать
    1 | 0
    Фильмы 2015 [DVDrip, WEB-DLRip, HDrip] [ 1.41 GB ] Стажер / The Intern [2015 BDRip ] Twi7ter Скачать
    1 | 0
    R.G. Resident & PiratVoice - Фильмы, Видео [ 2.66 GB ] Стажёр / The Intern [2015 WEB-DLRip-AVC - ] От R.G.Resident White Smoke Скачать
    1 | 0
    R.G. Resident & PiratVoice - Фильмы, Видео [ 2.17 GB ] Стажёр / The Intern [2015 HDRip ()] от R.G. Resident Dean24 Скачать
    1 | 0
    R.G. Resident & PiratVoice - Фильмы, Видео [ 2.18 GB ] Стажёр / The Intern [2015 BDRip-AVC ] schultz Скачать
    2 | 0
    Фильмы 2015 [DVDrip, WEB-DLRip, HDrip] [ 2.05 GB ] Стажёр / The Intern [2015 HDRip ] MihailHD Скачать
    1 | 0
    Фильмы 2015 [DVDrip, WEB-DLRip, HDrip] [ 1.37 GB ] Стажёр / The Intern [2015 HDRip ] MihailHD Скачать
    1 | 0

    28-11-2019 20:33  

    Отключить всю рекламу на сайте

    11-01-2016 10:53 Стажёр Скачать торрент  

    Очень хорошее кино,автору СПС!pb.wtf



    30-09-2017 11:19 Стажёр Скачать торрент  

    Фильм супер!pb.wtf



      Дорогой пользователь! Огромная просьба, поблагодарите релизера, оцените раздачу и оставьте свои комментарий, если Вы скачали Стажёр через торрент бесплатно! Внесите свою лепту в развитие PiratBit!
      Комментировать посты могут только пользователи прошедшие не сложную регистрацию
      Показать сообщения:    

      Стажёр через торрент
      Скачать бесплатно Стажёр
      Стажёр скачать торрент
      Стажёр смотреть онлайн
      Cкачать фильм Стажёр бесплатно
      Стажёр скачать торрент в хорошем качестве
      Стажёр смотреть онлайн бесплатно в хорошем качестве


      Вы не можете начинать темы
      Вы не можете отвечать на сообщения
      Вы не можете редактировать свои сообщения
      Вы не можете удалять свои сообщения
      Вы не можете голосовать в опросах
      Вы не можете прикреплять файлы к сообщениям
      Вы можете скачивать файлы