Мега распродажа FORZA HORIZON 4 ULTIMATE+ВСЕ DLC+ОНЛАЙН всего за 499р. 349 руб. (супер цена). Внимание количество ограничено!!!

Лицензия

30

iTunes

мы

iTunes

1

1 сезон

Чернобыль

1 сезон

Ральф против интернета

MVO

Покемон. Детектив Пикачу

8 сезон

Игра престолов

iTunes

1+1

ИГРА 18+

pack

ВАЖНО

!!Акция!!

Alien_RageХит недели

RePack

Resident Evil 21
pack

RePack

Metro:Exodus

!!Акция!!

Alien_Rage

RePack

fifa19

RePack

Assassins Creed: Odyssey

RePack

NEED FOR SPEED™ PAYBACK

3 сезон

9 сезон

Бесстыжие 9 сезон

Все сериалы

все сериалы на PB.wtf

RePack

FAR CRY 5
Ребята, катастрофически не хватает 2730р. для оплаты серверов за МАЙ (всвязи с блокировками трафик упал в 3 раза), 1-2р., выручайте.
  

Вечерний квартал [86] - Новогодний выпуск 2016 (Студия 95 квартал) [2015 г., Юмористическое шоу, DVB, Оригинальный] pb.wtf

Скачать  

01-01-2016 13:10 Вечерний квартал Скачать торрент  

Вечерний квартал [86] - Новогодний выпуск 2016
Год выпуска: 2015
Страна: Украина
Жанр: Юмористическое шоу
Продолжительность: 03:45:24
Перевод: Оригинальный

Режиссер: Студия 95 квартал

В ролях: Владимир Зеленский, Юрий Крапов, Денис Манжосов, Елена Кравец, Евгений Кошевой, Сергей Казанин, Александр Пикалов, Юрий Корявченков, Аркадий Лапухин

Описание: Однажды веселые ребята из "95-го квартала" решили отметить свой переезд из родного Кривого Рога в Киев, а заодно 10-летие команды новым шоу. Коллектив подобрался душевный, "с огоньком", гости - сплошь знаменитые, а столичная публика - щедрая на аплодисменты. Так родилась самая смешная и популярная передача на отечественном телевидении - "Вечерний квартал". Идея шоу проста: в городе N есть некий модный квартал, в котором тусуются девять смешных жителей. Остальные просто приходят к ним в гости. Правда, гости не совсем обычные: среди них встречаются и богатые, и знаменитые, политики, и дизайнеры, и поп-звезды. Главный критерий - наличие здорового чувства юмора. Без него - никак, так как гостей здесь встречают не хлебом-солью, а розыгрышами и подколками, а те в свою очередь участвуют в скетчах и исполняют музыкальные или танцевальные номера.

Качество: DVB
Формат: TS
Видео кодек: MPEG2
Аудио кодек: MPEG Audio
Видео: MPEG-2, ~ 5500 Кбит/сек, 720x576@768х576, 25,000 кадр/сек
Аудио#1: МР2, 2 ch, 192 Кбит/с, 48.0 KHz
Релиз от: Files-x
Съёмка: 12.12.2015
Эфир: 31.12.2015




General
ID : 16 (0x10)
Complete name : D:\Films\Вечерний квартал. Выпуск 86. Новогодний выпуск [2016] DVB.ts
Format : MPEG-TS
File size : 9.29 GiB
Duration : 3h 45mn
Overall bit rate mode : Variable
Overall bit rate : 5 903 Kbps

Video
ID : 769 (0x301)
Menu ID : 3 (0x3)
Format : MPEG Video
Format version : Version 2
Format profile : Main@Main
Format settings, BVOP : Yes
Format settings, Matrix : Custom
Format settings, GOP : Variable
Format settings, picture struc : Frame
Codec ID : 2
Duration : 3h 45mn
Bit rate mode : Variable
Bit rate : 5 417 Kbps
Maximum bit rate : 15.0 Mbps
Width : 720 pixels
Height : 576 pixels
Display aspect ratio : 4:3
Frame rate : 25.000 fps
Standard : PAL
Color space : YUV
Chroma subsampling : 4:2:0
Bit depth : 8 bits
Scan type : Interlaced
Scan order : Top Field First
Compression mode : Lossy
Bits/(Pixel*Frame) : 0.522
Time code of first frame : 00:00:00:00
Time code source : Group of pictures header
GOP, Open/Closed : Open
Stream size : 8.53 GiB (92%)
Writing library : (dvd5: Nov 27 2014)

Audio
ID : 770 (0x302)
Menu ID : 3 (0x3)
Format : MPEG Audio
Format version : Version 1
Format profile : Layer 2
Codec ID : 3
Duration : 3h 45mn
Bit rate mode : Constant
Bit rate : 192 Kbps
Channel(s) : 2 channels
Sampling rate : 48.0 KHz
Compression mode : Lossy
Stream size : 310 MiB (3%)

pb.wtf



Скачать
Чтобы иметь возможность скачивать с Торрент Трекера, нужно Зарегистрироваться

Как скачивать  ·  Рейтинг и ограничения


>> Регистрируемся здесь <<






Отзывы и комментарии о схеме читаем и пишем здесь: ---> Отзывы и комментарии о схеме

Новые благодарочки в телеграм довольных пользователей:
скриншот   скриншот   скриншот   скриншот   скриншот

01-01-2016 13:24 Вечерний квартал Скачать торрент  

А можно раздачку позолотить плиз в честь наступившего Нового года? :) Да и людям качать 9 гигов будет проще.pb.wtf



01-01-2016 13:31 Вечерний квартал Скачать торрент  

авжеж можна=) з Новим рокомpb.wtf



01-01-2016 13:37 Вечерний квартал Скачать торрент  

paranja писал(а):

авжеж можна=) з Новим роком

Велике дякую Вам! Вас також с Новим роком!!!!pb.wtf



06-01-2016 16:47 Вечерний квартал Скачать торрент  

Че размер такой ужасный? Или мову выучили, а простейшие способы конвертации тс в avi не изучили?pb.wtf



    Дорогой пользователь! Огромная просьба, поблагодарите релизера, оцените раздачу и оставьте свои комментарий, если Вы скачали Вечерний квартал через торрент бесплатно! Внесите свою лепту в развитие PiratBit!
    Комментировать посты могут только пользователи прошедшие не сложную регистрацию
    Показать сообщения:    

    Вечерний квартал через торрент
    Скачать бесплатно Вечерний квартал
    Вечерний квартал скачать торрент
    Вечерний квартал смотреть онлайн
    Cкачать фильм Вечерний квартал бесплатно
    Вечерний квартал скачать торрент в хорошем качестве
    Вечерний квартал смотреть онлайн бесплатно в хорошем качестве


    Вы не можете начинать темы
    Вы не можете отвечать на сообщения
    Вы не можете редактировать свои сообщения
    Вы не можете удалять свои сообщения
    Вы не можете голосовать в опросах
    Вы не можете прикреплять файлы к сообщениям
    Вы не можете скачивать файлы