Ссылка на приватное зеркало всего за 1$. Внимание количество ограничено!!!

OK

1+1

iTunes

мы

OK

1

WEB-DLRip

Джокер

Пифагор

Ведьмак / The Witcher сериал

Лицензия

ПШазам

ОК

Оно 2

iTunes

30
pack

Вам бонус

ВАЖНО

!!Акция!!

Alien_RageХит недели

RePack

Resident Evil 21

ИГРА 18+

pack

RePack

jed

!!Акция!!

Alien_Rage

RePack

fifa19

RePack

Assassins Creed: Odyssey

RePack

NEED FOR SPEED™ PAYBACK

4 сезон

9 сезон

Бесстыжие 9 сезон

Все сериалы

все сериалы на PB.wtf

RePack

FAR CRY 5
  

Костяной томагавк / Bone Tomahawk (С. Крэйг Залер) [2015 г., ужасы, триллер, драма, приключения, вестерн, HDRip, Дубляж "iTunes"] pb.wtf

Костяной томагавк через торрент pb.wtf

Размер: 2.19 GB | Добавлен: 4 года назад | Торрент скачан:84 раза
Скачать  

01-01-2016 18:22 Костяной томагавк Скачать торрент  

Костяной томагавк / Bone Tomahawk
Год выпуска: 2015
Страна: США / Caliber Media Company
Жанр: ужасы, триллер, драма, приключения, вестерн
Продолжительность: 02:12:03
Перевод: Дубляж (iTunes)

Режиссер: С. Крэйг Залер

IMDB 7.10 (13 749)


В ролях: Курт Рассел, Патрик Уилсон, Мэттью Фокс, Ричард Дженкинс, Лили Симмонс, Эван Йоникит, Дэвид Аркетт, Фред Меламед, Сид Хэйг, Маэстро Харрелл

Описание: Четверо мужчин отправляются в отдаленные земли Дикого Запада, чтобы спасти группу пленных из пещер каннибалов.

Качество: HDRip
Формат: AVI
Видео кодек: XviD
Аудио кодек: AC3
Видео: 720x304 (2.37:1), 23.976 fps, XviD build 50 ~1993 kbps avg, 0.38 bit/pixel
Аудио: 48 kHz, AC3 Dolby Digital, 3/2 (L,C,R,l,r) + LFE ch, ~384 kbps

Общее
Полное имя : F:\кино\Костяной томагавк.2015.D.HDRip.avi
Формат : AVI
Формат/Информация : Audio Video Interleave
Профиль формата : OpenDML
Размер файла : 2,19 Гбайт
Продолжительность : 2 ч. 12 м.
Общий поток : 2376 Кбит/сек
Программа кодирования : VirtualDubMod 1.5.10.3 | www.virtualdub-fr.org || (build 2550/release)
Библиотека кодирования : VirtualDubMod build 2550/release

Видео
Идентификатор : 0
Формат : MPEG-4 Visual
Профиль формата : Advanced Simple@L5
Параметр BVOP формата : 2
Параметр QPel формата : Нет
Параметр GMC формата : Без точки перехода
Параметр матрицы формата : Default (H.263)
Идентификатор кодека : XVID
Идентификатор кодека/Подсказка : XviD
Продолжительность : 2 ч. 12 м.
Битрейт : 1989 Кбит/сек
Ширина : 720 пикселей
Высота : 304 пикселя
Соотношение сторон : 2,35:1
Частота кадров : 23,976 (23976/1000) кадра/сек
Цветовое пространство : YUV
Субдискретизация насыщенности : 4:2:0
Битовая глубина : 8 бит
Тип развёртки : Прогрессивная
Метод сжатия : С потерями
Бит/(Пиксели*Кадры) : 0.379
Размер потока : 1,83 Гбайт (84%)
Библиотека кодирования : XviD 1.2.1 (UTC 2008-12-04)

Аудио
Идентификатор : 1
Формат : AC-3
Формат/Информация : Audio Coding 3
Расширение режима : CM (complete main)
Параметр Endianness формата : Big
Идентификатор кодека : 2000
Продолжительность : 2 ч. 9 м.
Вид битрейта : Постоянный
Битрейт : 384 Кбит/сек
Каналы : 6 каналов
Расположение каналов : Front: L C R, Side: L R, LFE
Частота : 48,0 КГц
Частота кадров : 31,250 кадров/сек (1536 spf)
Метод сжатия : С потерями
Размер потока : 355 Мбайт (16%)
Выравнивание : Разделение по промежуткам
Продолжительность промежутка : 43 мс. (1,02 видеокадр)
Время предзагрузки промежутка : 500 мс.

pb.wtf



Скачать Костяной томагавк через торрент http://pic.kartinco.top/images/11/vjwro.jpg Скачать фильм Костяной томагавк через торрент бесплантно в хорошем качестве Описание: Четверо мужчин отправляются в отдаленные земли Дикого Запада, чтобы спасти группу пленных из пещер ... 7 10 7
Info! Золотая раздача, скачанное не засчитывается.
Торрент: Зарегистрирован [2016-01-01 18:22] · скачан: 84 раз
Статус: √ проверено
Размер: 2.19 GB
Как cкачать? Как скачать Костяной томагавк через торрент | qTorrent

% Раздел Тема Автор DL S | L
Фильмы [HD 720p, 1080p] (Хороший звук DUB, MVO) [ 7.1 GB ] Костяной томагавк / Bone Tomahawk [2015 BDRip-HEVC 1080p ] 2xAVO+DUB [] bober100 Скачать
1 | 0
Фильмы [HD 720p, 1080p] (Хороший звук DUB, MVO) [ 15.93 GB ] Костяной томагавк / Bone Tomahawk [2015 BDRip 1080p] 2xAVO+DUB [] bober100 Скачать
1 | 0
Фильмы [HD 720p, 1080p] (Хороший звук DUB, MVO) [ 11.65 GB ] Костяной томагавк / Bone Tomahawk [2015 BDRip 720p] 2xAVO+DUB [] bober100 Скачать
1 | 0
Фильмы (Blu-ray, BD-Remux, HDDVD) [ 26.81 GB ] Костяной томагавк / Bone Tomahawk [2015 BD Remux 1080p] 2xAVO+DUB [] bober100 Скачать
1 | 0
Фильмы 2015 [DVDrip, WEB-DLRip, HDrip] [ 2.88 GB ] Костяной томагавк / Bone Tomahawk [2015 BDRip-AVC] - [] AVO Визгунов - ExKinoRay Enigma2010 Скачать
1 | 0
Фильмы 2015 [DVDrip, WEB-DLRip, HDrip] [ 1.46 GB ] Костяной томагавк / Bone Tomahawk [2015 BDRip] - [] Twi7ter Скачать
1 | 0
Фильмы 2015 [DVDrip, WEB-DLRip, HDrip] [ 2.18 GB ] Костяной томагавк / Bone Tomahawk [2015 BDRip] - [] Twi7ter Скачать
1 | 0

28-11-2019 20:33  

Отключить всю рекламу на сайте

02-01-2016 19:54 Костяной томагавк Скачать торрент  

Скудное такое описание, буду пионером если чё pb.wtf



    Дорогой пользователь! Огромная просьба, поблагодарите релизера, оцените раздачу и оставьте свои комментарий, если Вы скачали Костяной томагавк через торрент бесплатно! Внесите свою лепту в развитие PiratBit!
    Комментировать посты могут только пользователи прошедшие не сложную регистрацию
    Показать сообщения:    

    Костяной томагавк через торрент
    Скачать бесплатно Костяной томагавк
    Костяной томагавк скачать торрент
    Костяной томагавк смотреть онлайн
    Cкачать фильм Костяной томагавк бесплатно
    Костяной томагавк скачать торрент в хорошем качестве
    Костяной томагавк смотреть онлайн бесплатно в хорошем качестве


    Вы не можете начинать темы
    Вы не можете отвечать на сообщения
    Вы не можете редактировать свои сообщения
    Вы не можете удалять свои сообщения
    Вы не можете голосовать в опросах
    Вы не можете прикреплять файлы к сообщениям
    Вы можете скачивать файлы