Ссылка на приватное зеркало всего за 1$. Внимание количество ограничено!!!

iTunes

iTunes

iTunes

1

iTunes

iTunes

iTunes

WEBRip

iTunes

30
pack

$ от Little Big

ВАЖНО

!!Акция!!

Alien_RageХит недели

RePack

Resident Evil 21

ИГРА 18+

pack

RePack

jed

!!Акция!!

Alien_Rage

RePack

fifa19

RePack

Assassins Creed: Odyssey

RePack

NEED FOR SPEED™ PAYBACK

4 сезон

9 сезон

Бесстыжие 9 сезон

Все сериалы

все сериалы на PB.wtf

RePack

FAR CRY 5
  

Superнянь 2 / Babysitting 2 (Николас Бенаму, Филипп Лашо) [2015 г., комедия, WEB-DLRip, Дубляж "iTunes"] pb.wtf

Superнянь 2 через торрент pb.wtf

Размер: 703 MB | Добавлен: 4 года 7 мес. назад | Торрент скачан:364 раза
Скачать  

02-01-2016 17:36 Superнянь 2 Скачать торрент  

Superнянь 2 / Babysitting 2
Год выпуска: 2015
Страна: Франция / Axel Films, Film Factory
Жанр: комедия
Продолжительность: 01:32:40
Перевод: Дубляж (iTunes)

Режиссер: Николас Бенаму, Филипп Лашо

IMDB 6.20 (229)


В ролях: Филипп Лашо, Алис Давид, Венсан Дезанья, Тарек Будали, Кристиан Клавье, Жюльен Аррути, Грегуар Людиг, Давид Марсе, Шарлотта Габрис, Бето Бенитес

Описание: Влюбленная парочка Фрэнк и Соня приглашают своих друзей на отдых в Бразилию, в роскошный отель богатенького папы Сони. Планировалось, что это будет отдых мечты, а Фрэнк сделает Соне предложение посреди всей этой экзотики. Но его попытки получить одобрение отца оборачиваются полным провалом. Ведь с такими друзьями, как у него, и враги не нужны!Но настоящая катастрофа — впереди. Когда друзья — сексуально озабоченный Сэм, наивный чудак Эрнест и умственно отсталый Алекс — вместе с беднягой Фрэнком собрались на экскурсию, ушлый папаша пользуется возможностью и засылает в джунгли с этой бандой свою крикливую и надоедливую старушку. В общем, Амазонка и ее девственные леса еще никогда не были в такой опасности!

Качество: WEB-DLRip
Формат: AVI
Видео кодек: XviD
Аудио кодек: MP3
Видео: 640x360 (1.78:1), 24.000 fps, XviD build 50 ~922 kbps avg, 0.17 bit/pixel
Аудио: 48 kHz, MPEG Layer 3, 2 ch, ~128.00 kbps avg

Общее
Полное имя : F:\кино\Superнянь 2.2015.D.WEB-DLRip.700mb.avi
Формат : AVI
Формат/Информация : Audio Video Interleave
Размер файла : 703 Мбайт
Продолжительность : 1 ч. 32 м.
Общий поток : 1060 Кбит/сек
Программа кодирования : VirtualDubMod 1.5.10.3 | www.virtualdub-fr.org || (build 2550/release)
Библиотека кодирования : VirtualDubMod build 2550/release

Видео
Идентификатор : 0
Формат : MPEG-4 Visual
Профиль формата : Advanced Simple@L5
Параметр BVOP формата : 2
Параметр QPel формата : Нет
Параметр GMC формата : Без точки перехода
Параметр матрицы формата : Default (H.263)
Идентификатор кодека : XVID
Идентификатор кодека/Подсказка : XviD
Продолжительность : 1 ч. 32 м.
Битрейт : 923 Кбит/сек
Ширина : 640 пикселей
Высота : 360 пикселей
Соотношение сторон : 16:9
Частота кадров : 24,000 кадра/сек
Цветовое пространство : YUV
Субдискретизация насыщенности : 4:2:0
Битовая глубина : 8 бит
Тип развёртки : Прогрессивная
Метод сжатия : С потерями
Бит/(Пиксели*Кадры) : 0.167
Размер потока : 612 Мбайт (87%)
Библиотека кодирования : XviD 1.2.1 (UTC 2008-12-04)

Аудио
Идентификатор : 1
Формат : MPEG Audio
Версия формата : Version 1
Профиль формата : Layer 3
Режим : Joint stereo
Идентификатор кодека : 55
Идентификатор кодека/Подсказка : MP3
Продолжительность : 1 ч. 32 м.
Вид битрейта : Постоянный
Битрейт : 128 Кбит/сек
Каналы : 2 канала
Частота : 48,0 КГц
Метод сжатия : С потерями
Размер потока : 84,9 Мбайт (12%)
Выравнивание : Соединение по промежуткам
Продолжительность промежутка : 42 мс. (1,00 видеокадр)
Время предзагрузки промежутка : 504 мс.
Библиотека кодирования : LAME3.99r
Настройки программы : -m j -V 4 -q 2 -lowpass 17 -b 128

pb.wtf



Скачать Superнянь 2 через торрент http://pic.kartinco.top/images/11/oncjn.jpg Скачать фильм Superнянь 2 через торрент бесплантно в хорошем качестве Описание: Влюбленная парочка Фрэнк и Соня приглашают своих друзей на отдых в Бразилию, в роскошный отель богатенького папы Сони. ... 9.6 10 16
Info! Золотая раздача, скачанное не засчитывается.
Торрент: Зарегистрирован [2016-01-02 17:36] · скачан: 364 раз
Статус: √ проверено
Размер: 703 MB
Как cкачать? Как скачать Superнянь 2 через торрент | qTorrent

% Раздел Тема Автор DL S | L
Фильмы 2015 [DVDrip, WEB-DLRip, HDrip] [ 1.54 GB ] Superнянь 2 / Babysitting 2 [2015 BDRip] - Twi7ter Скачать
2 | 0
Фильмы (Blu-ray, BD-Remux, HDDVD) [ 15.34 GB ] Superнянь 2 / Babysitting 2 [2015 BD Remux 1080p] 2xDUB bober100 Скачать
2 | 0
Фильмы 2015 [DVDrip, WEB-DLRip, HDrip] [ 2.51 GB ] Superнянь 2 / Babysitting 2 [2015 BDRip-AVC] - - ExKinoRay Enigma2010 Скачать
1 | 0
Фильмы 2015 [DVDrip, WEB-DLRip, HDrip] [ 1.37 GB ] Superнянь 2 / Babysitting 2 [2015 WEB-DLRip] $-DRON-$ Скачать
1 | 0
R.G. Resident & PiratVoice - Фильмы, Видео [ 1.46 GB ] Superнянь 2 / Babysitting 2 [2015 WEB-DLRip-AVC ] От R.G.Resident White Smoke Скачать
1 | 0
Фильмы (WEB-DL 720p, 1080p) [ 3.59 GB ] Superнянь 2 / Babysitting 2 [2015 WEB-DL 1080p ] White Smoke Скачать
3 | 0
Фильмы (WEB-DL 720p, 1080p) [ 2.87 GB ] Superнянь 2 / Babysitting 2 [2015 WEB-DL 720p] $-DRON-$ Скачать
1 | 0

28-11-2019 20:33  

Отключить всю рекламу на сайте

    Дорогой пользователь! Огромная просьба, поблагодарите релизера, оцените раздачу и оставьте свои комментарий, если Вы скачали Superнянь 2 через торрент бесплатно! Внесите свою лепту в развитие PiratBit!
    Комментировать посты могут только пользователи прошедшие не сложную регистрацию
    Показать сообщения:    

    Superнянь 2 через торрент
    Скачать бесплатно Superнянь 2
    Superнянь 2 скачать торрент
    Superнянь 2 смотреть онлайн
    Cкачать фильм Superнянь 2 бесплатно
    Superнянь 2 скачать торрент в хорошем качестве
    Superнянь 2 смотреть онлайн бесплатно в хорошем качестве


    Вы не можете начинать темы
    Вы не можете отвечать на сообщения
    Вы не можете редактировать свои сообщения
    Вы не можете удалять свои сообщения
    Вы не можете голосовать в опросах
    Вы не можете прикреплять файлы к сообщениям
    Вы можете скачивать файлы