Ссылка на приватное зеркало всего за 1$. Внимание количество ограничено!!!

iTunes

iTunes

iTunes

1

iTunes

iTunes

iTunes

iTunes

iTunes

30
pack

$ от Little Big

ВАЖНО

!!Акция!!

Alien_RageХит недели

RePack

Resident Evil 21

ИГРА 18+

pack

RePack

jed

!!Акция!!

Alien_Rage

RePack

fifa19

RePack

Assassins Creed: Odyssey

RePack

NEED FOR SPEED™ PAYBACK

4 сезон

9 сезон

Бесстыжие 9 сезон

Все сериалы

все сериалы на PB.wtf

RePack

FAR CRY 5
  

Белые цыпочки / White Chicks (Кинен Айвори Уайанс) [2004 г., Комедия, криминал, HDTV 1080i, Дубляж] pb.wtf

Белые цыпочки через торрент pb.wtf

Размер: 7.32 GB | Добавлен: 4 года 6 мес. назад | Торрент скачан:49 раз
Скачать  

03-01-2016 10:33 Белые цыпочки Скачать торрент  

Белые цыпочки / White Chicks
Год выпуска: 2004
Страна: США
Жанр: Комедия, криминал
Продолжительность: 01:44:52
Перевод: Дубляж+ Дублированный (TV1000)+ Профессиональный многоголосый+ Оригинал
Субтитры: Pусские

Режиссер: Кинен Айвори Уайанс

В ролях: Шон Уайанс, Марлон Уайанс, Джейми Кинг, Фрэнки Фэйсон, Локлин Манро, Джон Хёрд, Терри Крюз, Бриттани Дэниэл, Эдди Велес, Джессика Коффил

Описание: Изрядно проштрафившиеся агенты ФБР (братья афро-американцы) решают обелить себя перед руководством. Причем как в переносном, так и в прямом смыслах. Их миссией становится защита двух сестер Уилтон, наследниц огромной гостиничной империи, от похищения во время их переезда из нью-йоркского аэропорта в отель Хэмптонс. Вновь переоценив свои способности, братья придумывают новый бредовый план — спрятать сестер в укромном месте, а самим переодеться и загримироваться в них, благо приезжих миллионерш в лицо мало кто знает. Все, что им теперь осталось сделать -убедить весь остальной мир (включая остальных сотрудников ФБР, «охраняющих» их, а также всех родных и близких сестер Уилтон) в том, что они действительно молодые, богатые бледнолицые миллионерки. Проколы и приколы подобное развитие событий вполне предусматривает…

Качество: HDTV (1080i)
Формат: MKV
Видео кодек: AVC
Аудио кодек: AC3
Видео: MPEG-4 AVC, (1920x1080),7361Кбит/с, 25.000 кадра/сек
Аудио#1: AC3, 6 ch,448 kbps (Rus) 48.0 KHz Дублированный
Аудио#2: AC3, 2 ch,192 kbps (Rus) 48.0 KHz Дублированный (TV1000)
Аудио#3: AC3, 6 ch,384 kbps (Rus) 48.0 KHz Профессиональный многоголосый
Аудио#4: AC3, 6 ch,448 kbps (Eng) 48.0 KHz Оригинал
скриншот   скриншот   скриншот  

Тип потока: Видео
Длительность: 01:44:51
Кодек: AVC
Кодек/описание: Advanced Video Codec
Кодек/профиль: High@L4.0
Кодек/ID: V_MPEG4/ISO/AVC
Кодек/CABAC: Yes
Кодек/ReFrames: 4 frames
Размеры изображения: 1920 x 1080 (16:9)
Частота кадров: 25.000 fps
Частота кадров/тип: Constant
Размер потока: 6.10 GiB (83%)
Битрейт: 8 324 Kbps
Стандарт: Component
Цветовое пространство: YUV
Тип развёртки: Interlaced
Колориметрия: 4:2:0
Глубина: 8 bits
:
Тип потока: Звук #1
Язык: Russian
Название: DUB
Длительность: 01:44:51.520
Кодек: AC-3
Кодек/описание: Audio Coding 3
Кодек/ID: A_AC3
Частота дискретизации: 48.0 KHz
Каналов: 6 channels
Битрейт: 448 Kbps
Битрейт/тип: Constant
Размер потока: 336 MiB (4%)
Глубина: 16 bits
Метод сжатия: Lossy
:
Тип потока: Звук #2
Язык: Russian
Название: DUB TV1000
Длительность: 01:44:51.520
Кодек: AC-3
Кодек/описание: Audio Coding 3
Кодек/ID: A_AC3
Частота дискретизации: 48.0 KHz
Каналов: 2 channels
Битрейт: 192 Kbps
Битрейт/тип: Constant
Размер потока: 144 MiB (2%)
Глубина: 16 bits
Метод сжатия: Lossy
:
Тип потока: Звук #3
Язык: Russian
Название: MVO
Длительность: 01:44:51.520
Кодек: AC-3
Кодек/описание: Audio Coding 3
Кодек/ID: A_AC3
Частота дискретизации: 48.0 KHz
Каналов: 6 channels
Битрейт: 384 Kbps
Битрейт/тип: Constant
Размер потока: 288 MiB (4%)
Глубина: 16 bits
Метод сжатия: Lossy
:
Тип потока: Звук #4
Язык: English
Длительность: 01:44:51.520
Кодек: AC-3
Кодек/описание: Audio Coding 3
Кодек/ID: A_AC3
Частота дискретизации: 48.0 KHz
Каналов: 6 channels
Битрейт: 448 Kbps
Битрейт/тип: Constant
Размер потока: 336 MiB (4%)
Глубина: 16 bits
Метод сжатия: Lossy
:
Тип потока: Субтитры #1
Язык: Russian
Формат: UTF-8
Формат/подробно: UTF-8 Plain Text

pb.wtf



Скачать Белые цыпочки через торрент http://pic1.kartinco.top/images/10/3bckq.jpg Скачать фильм Белые цыпочки через торрент бесплантно в хорошем качестве Описание: Изрядно проштрафившиеся агенты ФБР (братья афро-американцы) решают обелить себя перед руководством. Причем как в переносном, так ... 8.7 10 7
Info! Серебряная раздача, засчитывается только 50% скачанного.
Торрент: Зарегистрирован [2016-01-03 10:33] · скачан: 49 раз
Статус: √ проверено
Размер: 7.32 GB
Как cкачать? Как скачать Белые цыпочки через торрент | qTorrent

% Раздел Тема Автор DL S | L
Порно фильмы HD [ 2.21 GB ] Белые Цыпочки Любят Большие Черные Члены / White Chicks Love Big Black Dicks [2015 Interracial Big Dick Young Big Butt WEB-DLRip Оригинал] Pir@tya2010 Скачать
1 | 0
Фильмы 2001-2005 [ 2.21 GB ] Белые цыпочки / White Chicks [2004 HDTVRip 720p flatro1 Скачать
1 | 0
Этнические порно фильмы [ 1.86 GB ] Молоденькие черные цыпочки пробуют белые члены / Teeny Black Chicks Trying White Dicks [2013 All Sex Movies Interracial Black Girls DVDRip-AVC Оригинал] sheker187 Скачать
1 | 0

28-11-2019 20:33  

Отключить всю рекламу на сайте

    Дорогой пользователь! Огромная просьба, поблагодарите релизера, оцените раздачу и оставьте свои комментарий, если Вы скачали Белые цыпочки через торрент бесплатно! Внесите свою лепту в развитие PiratBit!
    Комментировать посты могут только пользователи прошедшие не сложную регистрацию
    Показать сообщения:    

    Белые цыпочки через торрент
    Скачать бесплатно Белые цыпочки
    Белые цыпочки скачать торрент
    Белые цыпочки смотреть онлайн
    Cкачать фильм Белые цыпочки бесплатно
    Белые цыпочки скачать торрент в хорошем качестве
    Белые цыпочки смотреть онлайн бесплатно в хорошем качестве


    Вы не можете начинать темы
    Вы не можете отвечать на сообщения
    Вы не можете редактировать свои сообщения
    Вы не можете удалять свои сообщения
    Вы не можете голосовать в опросах
    Вы не можете прикреплять файлы к сообщениям
    Вы можете скачивать файлы