Ссылка на приватное зеркало всего за 1$. Внимание количество ограничено!!!

iTunes

iTunes

iTunes

1

iTunes

iTunes

iTunes

iTunes

iTunes

30
pack

Новость дня

ВАЖНО

!!Акция!!

Alien_RageХит недели

RePack

Resident Evil 21

ИГРА 18+

pack

RePack

jed

!!Акция!!

Alien_Rage

RePack

fifa19

RePack

Assassins Creed: Odyssey

RePack

NEED FOR SPEED™ PAYBACK

4 сезон

9 сезон

Бесстыжие 9 сезон

Все сериалы

все сериалы на PB.wtf

RePack

FAR CRY 5
  

Рэкетир 2 (Акан Сатаев) [2015 г., боевик, драма, криминал, WEBRip] pb.wtf

Рэкетир 2 через торрент pb.wtf

Размер: 1.37 GB | Добавлен: 4 года 4 мес. назад | Торрент скачан:2151 раз
Скачать  

03-01-2016 12:52 Рэкетир 2 Скачать торрент  

Рэкетир 2 Год выпуска: 2015
Страна: Казахстан
Жанр: боевик, драма, криминал
Продолжительность: 01:51:52
Режиссер: Акан Сатаев
В ролях: Аружан Джазильбекова, Асель Сагатова, Аян Утепберген, Фархад Абдраимов, Саят Исембаев, Жан Байжанбаев, Азамат Сатыбалды, Дастен Шакиров
Описание:
Судьба дарит главному герою второй шанс. Все считали его погибшим. С момента гибели Руслана прошло уже десять лет. Саян — преданный помощник Руслана — принял решение отойти от дел и начать жизнь с чистого листа. Когда к нему в дом пришел младший брат погибшего начальника Була, Саян насторожился. И не зря. Була хотел мести, но Саян не готов возвращаться к прошлому. Тут-то и начинается самое интересное…

Качество: WEBRip
Формат: AVI
Видео: XviD, 1611 kb/s, 720x304, 25.000 fps
Аудио#1: AC3, 128 kb/s (2 ch) 44.1 KHz







General
Complete name : D:\Films\Reketir.II.2015.O.WEBRip.14OOMB.avi
Format : AVI
Format/Info : Audio Video Interleave
File size : 1.37 GiB
Duration : 1h 51mn
Overall bit rate : 1 749 Kbps
Writing application : VirtualDubMod 1.5.10.2 (build 2540/release)
Writing library : VirtualDubMod build 2540/release

Video
ID : 0
Format : MPEG-4 Visual
Format profile : Advanced Simple@L5
Format settings, BVOP : 2
Format settings, QPel : No
Format settings, GMC : No warppoints
Format settings, Matrix : Default (MPEG)
Codec ID : XVID
Codec ID/Hint : XviD
Duration : 1h 51mn
Bit rate : 1 612 Kbps
Width : 720 pixels
Height : 304 pixels
Display aspect ratio : 2.35:1
Frame rate : 25.000 fps
Color space : YUV
Chroma subsampling : 4:2:0
Bit depth : 8 bits
Scan type : Progressive
Compression mode : Lossy
Bits/(Pixel*Frame) : 0.295
Stream size : 1.26 GiB (92%)
Writing library : XviD 1.2.1 (UTC 2008-12-04)

Audio
ID : 1
Format : AC-3
Format/Info : Audio Coding 3
Mode extension : CM (complete main)
Format settings, Endianness : Big
Codec ID : 2000
Duration : 1h 51mn
Bit rate mode : Constant
Bit rate : 128 Kbps
Channel(s) : 2 channels
Channel positions : Front: L R
Sampling rate : 44.1 KHz
Frame rate : 28.711 fps (1536 spf)
Compression mode : Lossy
Stream size : 102 MiB (7%)
Alignment : Split accross interleaves
Interleave, duration : 40 ms (1.00 video frame)
Interleave, preload duration : 500 ms


Рекетир скачать торрент


pb.wtf



Скачать Рэкетир 2 через торрент http://s019.radikal.ru/i632/1601/32/587843a7b833.jpg Скачать фильм Рэкетир 2 через торрент бесплантно в хорошем качестве Описание: Судьба дарит главному герою второй шанс. Все считали его погибшим. С момента гибели Руслана прошло уже десять лет. Саян — ... 9.6 10 66
Info! Золотая раздача, скачанное не засчитывается.
Торрент: Зарегистрирован [2016-01-03 12:52] · скачан: 2 151 раз
Статус: T временная
Размер: 1.37 GB
Как cкачать? Как скачать Рэкетир 2 через торрент | qTorrent

% Раздел Тема Автор DL S | L
T Наши новые фильмы 2015 [ 2.15 GB ] Рэкетир 2 [2015 WEB-DLRip 720p] sanekbest1 Скачать
1 | 0
T Наши новые фильмы 2015 [ 747 MB ] Рэкетир 2 [2015 WEB-DLRip] [Оригинал] killermax2013 Скачать
1 | 0

28-11-2019 20:33  

Отключить всю рекламу на сайте

03-01-2016 15:13 Рэкетир 2 Скачать торрент  

Посмотрим,первая часть довольно таки хорошо сняли pb.wtf



03-01-2016 15:33 Рэкетир 2 Скачать торрент  

Согласен, первая часть была интересной и динамичной. Посмотрим сиквел))pb.wtf



03-01-2016 15:58 Рэкетир 2 Скачать торрент  

Аля решала 2.Казахи Ниче нового придумать не могут.Брат,братишка...очередной высер арийского народаpb.wtf



03-01-2016 18:50 Рэкетир 2 Скачать торрент  

aidar090 писал(а):

Аля решала 2.Казахи Ниче нового придумать не могут.Брат,братишка...очередной высер арийского народа

в твои 20 лет ближе человек-муравей )))))pb.wtf



03-01-2016 18:51 Рэкетир 2 Скачать торрент  

M@ksim писал(а):

Посмотрим,первая часть довольно таки хорошо сняли

Sairoxx_1984 писал(а):

Согласен, первая часть была интересной и динамичной. Посмотрим сиквел))

вторая слабее... но смотрительна!pb.wtf



04-01-2016 21:27 Рэкетир 2 Скачать торрент  

Первая была на высоте.pb.wtf



07-01-2016 13:53 Рэкетир 2 Скачать торрент  

на один разpb.wtf



07-01-2016 16:28 Рэкетир 2 Скачать торрент  

C первой частью даже рядом не стоит. Ожидал большего. pb.wtf



18-01-2016 23:47 Рэкетир 2 Скачать торрент  

Классный фильмец!pb.wtf



24-01-2016 11:49 Рэкетир 2 Скачать торрент  

смотреть стоит, хотя концовка ...... , а всем тем кто гворит .... смените подгузники деткиpb.wtf



22-02-2016 12:37 Рэкетир 2 Скачать торрент  

aidar090 писал(а):

Аля решала 2.Казахи Ниче нового придумать не могут.Брат,братишка...очередной высер арийского народа

Что может понимать человек, который еще какается и писается))pb.wtf



12-03-2016 15:05 Рэкетир 2 Скачать торрент  

логическая развязка..®pb.wtf



01-11-2016 14:13 Рэкетир 2 Скачать торрент  

1 часть зацепила. Очень жизненно и правдиво, многие ситуации происходили со мной и моими знакомыми. 2 посмотрю - отпишу, думаю как все сиквелы она послабее будет. Релизеру спасибо.pb.wtf



    Дорогой пользователь! Огромная просьба, поблагодарите релизера, оцените раздачу и оставьте свои комментарий, если Вы скачали Рэкетир 2 через торрент бесплатно! Внесите свою лепту в развитие PiratBit!
    Комментировать посты могут только пользователи прошедшие не сложную регистрацию
    Показать сообщения:    

    Рэкетир 2 через торрент
    Скачать бесплатно Рэкетир 2
    Рэкетир 2 скачать торрент
    Рэкетир 2 смотреть онлайн
    Cкачать фильм Рэкетир 2 бесплатно
    Рэкетир 2 скачать торрент в хорошем качестве
    Рэкетир 2 смотреть онлайн бесплатно в хорошем качестве


    Вы не можете начинать темы
    Вы не можете отвечать на сообщения
    Вы не можете редактировать свои сообщения
    Вы не можете удалять свои сообщения
    Вы не можете голосовать в опросах
    Вы не можете прикреплять файлы к сообщениям
    Вы можете скачивать файлы