Всегда рабочее зеркало без VPN и Proxy просто перед .vidak.icu напиши любое слово или цифру, Пример http://4gpi.vidak.icu

MVO

2 сезон

1 сезон

1

1 сезон

iTunes

2 сезон

13

1 сезон

Распродажа

pack

Рекомендуем

Пиратка

30

ВАЖНО

RePack

MK11

RePack

jed

RePack

fifa19

RePack

RDR2

RePack

NEED FOR SPEED™ PAYBACK

Кинопоиск HD

6 сезон

 Острые козырьки 6 сезон

Все сериалы

все сериалы на PB.wtf

RePack

FAR CRY 5

Anonymous, нам критически не хватает 5601 руб. на оплату серверов и переферии за Апрель, помоги нам пожалуйста, вся надежда только на тебя. В благодарность мы отключим тебе всю рекламу на сайте!

×
  
Magnet ссылка

Марсианин / The Martian (Ридли Скотт ) [2015, Фантастика, приключения, BDRip 1080p 3D, Дубляж] Anamorph SideBySide / Анаморфная горизонтальная стереопара pb.wtf

Марсианин через торрент pb.wtf

Размер: 10.53 GB | Добавлен: 6 лет 4 мес. назад | Торрент скачан:753 раза
Смотреть онлайн Марсианин | Скачать    Ребята, помогите собрать деньги на оплату серверов!!!

03-01-2016 15:36 Марсианин Скачать торрент  

Марсианин 3D / The Martian 3D

Год выпуска: 2015
Страна: США
Жанр: Фантастика,приключения
Продолжительность: 02:21:37
Перевод: Дубляж [Лицензия / iTunes]
Субтитры: русские, украинские, английские,
Режиссер: Ридли Скотт
В ролях: Мэтт Дэймон (Mark Watney), Джессика Честейн (Melissa Lewis), Чиветель Эджиофор (Vincent Kapoor), Кристен Уиг (Annie Montrose), Джефф Дэниелс (Teddy Sanders), Майкл Пенья (Rick Martinez), Шон Бин (Mitch Henderson), Кейт Мара (Beth Johanssen), Себастьян Стэн (Chris Beck), Аксель Хенни (Alex Vogel), Бенедикт Вонг (Bruce Ng), Маккензи Дэвис (Mindy Park)
Описание:
Марсианская миссия «Арес-3» в процессе работы была вынуждена экстренно покинуть планету из-за надвигающейся песчаной бури. Инженер и биолог Марк Уотни получил повреждение скафандра во время песчаной бури. Сотрудники миссии, посчитав его погибшим, эвакуировались с планеты, оставив Марка одного. Очнувшись, Уотни обнаруживает, что связь с Землёй отсутствует, но при этом полностью функционирует жилой модуль. Главный герой начинает искать способ продержаться на имеющихся запасах еды, витаминов, воды и воздуха ещё 4 года до прилёта следующей миссии «Арес-4».
Рейтинг:

Качество: BDRip 1080p
Формат: MKV
Формат3D: Anamorph SideBySide
Видео: AVC, 1920x1080 (16:9), 8344 kbps, 23,976 fps, 0,168 bpp
Аудио №1: русский / AC3 / 5.1 / 48 kHz / 384 kbps / 16 bit
Аудио №2: украинский / AC3 / 2.0 / 44 kHz / 192 kbps / 16 bit
Аудио №3: английский / DTS / 5.1 / 48 kHz / 1510 kbps / 24 bit
Навигация по главам: есть

Код:

General
Unique ID                                : 253985886728398564922967042927894847960 (0xBF13E708496CA089A7E2A70A3C61E1D8)
Complete name                            : D:\Фильмы\The.Marsian.2015.3D.BDRip.1080p.mkv
Format                                   : Matroska
Format version                           : Version 3 / Version 2
File size                                : 10.5 GiB
Duration                                 : 2h 21mn
Overall bit rate                         : 10.6 Mbps
Encoded date                             : UTC 2015-12-31 10:27:36
Writing application                      : mkvmerge v7.9.0 ('Birds') 64bit
Writing library                          : libebml v1.3.1 + libmatroska v1.4.2
Attachment                               : Yes / Yes / Yes

Video
ID                                       : 1
Format                                   : AVC
Format/Info                              : Advanced Video Codec
Format profile                           : High@L4.1
MultiView_Count                          : 2
MultiView_Layout                         : Side by Side (left eye first)
Format settings, CABAC                   : Yes
Format settings, ReFrames                : 4 frames
Codec ID                                 : V_MPEG4/ISO/AVC
Duration                                 : 2h 21mn
Bit rate                                 : 8 344 Kbps
Width                                    : 1 920 pixels
Height                                   : 1 080 pixels
Display aspect ratio                     : 16:9
Frame rate                               : 23.976 fps
Color space                              : YUV
Chroma subsampling                       : 4:2:0
Bit depth                                : 8 bits
Scan type                                : Progressive
Bits/(Pixel*Frame)                       : 0.168
Stream size                              : 8.25 GiB (78%)
Writing library                          : x264 core 148 r2638 7599210
Encoding settings                        : cabac=1 / ref=4 / deblock=1:-1:-1 / analyse=0x3:0x133 / me=umh / subme=10 / psy=1 / psy_rd=1.00:0.15 / mixed_ref=1 / me_range=24 / chroma_me=1 / trellis=2 / 8x8dct=1 / cqm=0 / deadzone=21,11 / fast_pskip=1 / chroma_qp_offset=-3 / threads=12 / lookahead_threads=2 / sliced_threads=0 / nr=0 / decimate=1 / interlaced=0 / bluray_compat=0 / constrained_intra=0 / bframes=8 / b_pyramid=2 / b_adapt=2 / b_bias=0 / direct=3 / weightb=1 / open_gop=0 / weightp=2 / keyint=250 / keyint_min=23 / scenecut=40 / intra_refresh=0 / rc_lookahead=60 / rc=crf / mbtree=1 / crf=17.0 / qcomp=0.60 / qpmin=0 / qpmax=69 / qpstep=4 / vbv_maxrate=62500 / vbv_bufsize=78125 / crf_max=0.0 / nal_hrd=none / filler=0 / frame-packing=3 / ip_ratio=1.40 / aq=1:1.00
Language                                 : English
Default                                  : Yes
Forced                                   : No

Audio #1
ID                                       : 2
Format                                   : AC-3
Format/Info                              : Audio Coding 3
Mode extension                           : CM (complete main)
Codec ID                                 : A_AC3
Duration                                 : 2h 21mn
Bit rate mode                            : Constant
Bit rate                                 : 384 Kbps
Channel(s)                               : 6 channels
Channel positions                        : Front: L C R, Side: L R, LFE
Sampling rate                            : 48.0 KHz
Bit depth                                : 16 bits
Compression mode                         : Lossy
Stream size                              : 389 MiB (4%)
Title                                    : iTunes
Language                                 : Russian
Default                                  : Yes
Forced                                   : No

Audio #2
ID                                       : 3
Format                                   : AC-3
Format/Info                              : Audio Coding 3
Mode extension                           : CM (complete main)
Codec ID                                 : A_AC3
Duration                                 : 2h 21mn
Bit rate mode                            : Constant
Bit rate                                 : 192 Kbps
Channel(s)                               : 2 channels
Channel positions                        : Front: L R
Sampling rate                            : 44.1 KHz
Bit depth                                : 16 bits
Compression mode                         : Lossy
Stream size                              : 194 MiB (2%)
Title                                    : iTunes
Language                                 : Ukrainian
Default                                  : No
Forced                                   : No

Audio #3
ID                                       : 4
Format                                   : DTS
Format/Info                              : Digital Theater Systems
Codec ID                                 : A_DTS
Duration                                 : 2h 21mn
Bit rate mode                            : Constant
Bit rate                                 : 1 510 Kbps
Channel(s)                               : 6 channels
Channel positions                        : Front: L C R, Side: L R, LFE
Sampling rate                            : 48.0 KHz
Bit depth                                : 24 bits
Compression mode                         : Lossy
Stream size                              : 1.49 GiB (14%)
Title                                    : English DTS Core 5.1 @1509 Kbps
Language                                 : English
Default                                  : No
Forced                                   : No

Text #1
ID                                       : 5
Format                                   : UTF-8
Codec ID                                 : S_TEXT/UTF8
Codec ID/Info                            : UTF-8 Plain Text
Language                                 : Russian
Default                                  : Yes
Forced                                   : No

Text #2
ID                                       : 6
Format                                   : UTF-8
Codec ID                                 : S_TEXT/UTF8
Codec ID/Info                            : UTF-8 Plain Text
Language                                 : Russian
Default                                  : No
Forced                                   : No

Text #3
ID                                       : 7
Format                                   : UTF-8
Codec ID                                 : S_TEXT/UTF8
Codec ID/Info                            : UTF-8 Plain Text
Language                                 : Ukrainian
Default                                  : No
Forced                                   : No

Text #4
ID                                       : 8
Format                                   : UTF-8
Codec ID                                 : S_TEXT/UTF8
Codec ID/Info                            : UTF-8 Plain Text
Language                                 : Ukrainian
Default                                  : No
Forced                                   : No

Text #5
ID                                       : 9
Format                                   : UTF-8
Codec ID                                 : S_TEXT/UTF8
Codec ID/Info                            : UTF-8 Plain Text
Language                                 : English
Default                                  : No
Forced                                   : No

Menu
00:00:00.000                             : en:Chapter 01
00:03:22.285                             : en:Chapter 03
00:10:08.983                             : en:Chapter 05
00:15:24.590                             : en:Chapter 07
00:18:25.187                             : en:Chapter 09
00:21:34.376                             : en:Chapter 11
00:24:28.091                             : en:Chapter 13
00:28:52.689                             : en:Chapter 15
00:31:36.644                             : en:Chapter 17
00:34:21.100                             : en:Chapter 19
00:39:13.434                             : en:Chapter 21
00:41:21.770                             : en:Chapter 23
00:46:23.530                             : en:Chapter 25
00:49:25.087                             : en:Chapter 27
00:56:15.747                             : en:Chapter 29
00:59:40.493                             : en:Chapter 31
01:02:23.823                             : en:Chapter 33
01:06:53.134                             : en:Chapter 35
01:09:52.980                             : en:Chapter 37
01:13:51.301                             : en:Chapter 39
01:18:38.255                             : en:Chapter 41
01:22:52.467                             : en:Chapter 43
01:30:41.269                             : en:Chapter 45
01:37:30.094                             : en:Chapter 47
01:43:31.997                             : en:Chapter 49
01:46:16.286                             : en:Chapter 51
01:50:18.737                             : en:Chapter 53
01:54:07.966                             : en:Chapter 55
01:57:49.312                             : en:Chapter 57
02:04:41.682                             : en:Chapter 59
02:11:05.732                             : en:Chapter 61
02:13:28.792                             : en:Chapter 63
02:21:37.322                             : en:Chapter 64

pb.wtf



Скачать Марсианин через торрент http://i74.fastpic.ru/big/2016/0103/c1/f094167304bb7aa48a4d607e7acc01c1.jpg Скачать, смотреть онлайн Марсианин бесплантно в хорошем качестве Описание: Марсианская миссия «Арес-3» в процессе работы была вынуждена экстренно покинуть планету из-за надвигающейся песчаной бури. ... 9.9 10 11
Info! Золотая раздача, скачанное не засчитывается.
Торрент: Зарегистрирован [2016-01-03 15:36] · скачан: 753 раз
Статус: √ проверено
Размер: 10.53 GB
Как cкачать? Как скачать Марсианин через торрент | UTorrent

28-11-2019 20:33  

Отключить всю рекламу на сайте

16-01-2016 14:59 Марсианин Скачать торрент  

Ёпти !!! С такой скоростью , только к следующему Новому году загрузиться !!!pb.wtf



    Дорогой пользователь! Огромная просьба, поблагодарите релизера, оцените раздачу и оставьте свои комментарий, если Вы скачали Марсианин через торрент бесплатно!
    Комментировать посты могут только пользователи прошедшие не сложную регистрацию
    Показать сообщения:    

    Марсианин через торрент
    Скачать бесплатно Марсианин
    Марсианин скачать торрент
    Марсианин смотреть онлайн
    Cкачать фильм Марсианин бесплатно
    Марсианин скачать торрент в хорошем качестве
    Марсианин смотреть онлайн бесплатно в хорошем качестве


    Вы не можете начинать темы
    Вы не можете отвечать на сообщения
    Вы не можете редактировать свои сообщения
    Вы не можете удалять свои сообщения
    Вы не можете голосовать в опросах
    Вы не можете прикреплять файлы к сообщениям
    Вы можете скачивать файлы