Ссылка на приватное зеркало нашего сайта всего за 1$. Внимание количество ограничено!!!

2 сезон

iTunes

1 сезон

1

2 сезон

2 сезон

iTunes

1 сезон

RePack

30

Новинка

ВАЖНО

ИГРА 18+

pack

RePack

MK11
pack

Забери бонус

RePack

jed

!!Акция!!

Alien_Rage

RePack

fifa19

RePack

Assassins Creed: Odyssey

RePack

NEED FOR SPEED™ PAYBACK

4 сезон

9 сезон

Бесстыжие 9 сезон

Все сериалы

все сериалы на PB.wtf

RePack

FAR CRY 5
  

Кремниевая долина / Силиконовая долина / Silicon Valley / Сезон: 2 / Серии 10 из 10 (Майк Джадж) [2015, США, комедия, HDTVRip 720p] DVO [Кубик в Кубе] + Original pb.wtf

Кремниевая долина через торрент pb.wtf

Размер: 10.04 GB | Добавлен: 4 года 11 мес. назад | Торрент скачан:383 раза
Скачать  

03-01-2016 15:54 Кремниевая долина Скачать торрент  


✧ Кремниевая долина ✧
Информация о фильме:

✦ Название: Кремниевая долина / Силиконовая долина

✦ Оригинальное название: Silicon Valley

✦ Год выхода: 2015

✦ Жанр: комедия

✦ Режиссер: Майк Джадж

✦ В ролях: Аманда Крю, Эли Мави, Джэйк Бродер, Энди Бакли, Порша Коулмэн, Джимми Оуянг, Остин Абрамс, Victor Achkeev, Джилл Е. Александр, Бобак Бахтиари


Описание фильма:

Жизнь в Силиконовой долине – жестокая борьба за место под калифорнийским солнцем. Каждый здесь мечтает стать новым Джобсом. Шестеро молодых айтишников пытаются придумать прорывный стартап, который принесет им славу и деньги. Но великие изобретатели беспомощны в повседневной жизни, а толковые прагматики не могут справиться со звездной болезнью. Создатель шоу Майк Джадж, автор «Бивиса и Баттхеда», знает, как превратить эти гиковские сложности в комедию.



✦ Страна: США

✦ Продолжительность: ~ 00:30:00

✦ Перевод: Профессиональный (двухголосый, закадровый)
- Кубик в Кубе



Информация о файле:



✦ Качество: HDTVRip 720p

✦ Кодек: AVC

✦ Формат: MKV (H.264)

✦ Видео: ~ 4254 kb/s, 1280x714, 29,970 fps

✦ Аудио RU: AC3, 384 kb/s (6 ch) , 48.0 KHz

✦ Аудио EN: AC3, 384 kb/s (6 ch) , 48.0 KHz

✦ Субтитры: нет


Релиз от:
General
Unique ID : 229744551676479684422683369425825427578 (0xACD730F014E72FC4A58B4CB8A607F07A)
Complete name : D:\Торенты\Silicon.Valley.S02.720p.HDTV.CasStudio.TV\Silicon.Valley.s02e06.rus.eng.720p.HDTV.CasStudio.TV.mkv
Format : Matroska
Format version : Version 4 / Version 2
File size : 1.08 GiB
Duration : 29mn 16s
Overall bit rate : 5 289 Kbps
Movie name : Silicon Valley 02x06 (Homicide) - release by mesafan for CasStudio.TV
Encoded date : UTC 2015-05-21 18:41:16
Writing application : mkvmerge v6.7.0 ('Back to the Ground') 64bit built on Jan 8 2014 15:10:52
Writing library : libebml v1.3.0 + libmatroska v1.4.1

Video
ID : 1
Format : AVC
Format/Info : Advanced Video Codec
Format profile : High@L4.1
Format settings, CABAC : Yes
Format settings, ReFrames : 9 frames
Codec ID : V_MPEG4/ISO/AVC
Duration : 29mn 16s
Bit rate : 4 416 Kbps
Width : 1 280 pixels
Height : 714 pixels
Display aspect ratio : 16:9
Frame rate mode : Constant
Frame rate : 23.976 (24000/1001) fps
Color space : YUV
Chroma subsampling : 4:2:0
Bit depth : 8 bits
Scan type : Progressive
Bits/(Pixel*Frame) : 0.202
Stream size : 924 MiB (83%)
Writing library : x264 core 146 r2538 121396c
Encoding settings : cabac=1 / ref=9 / deblock=1:-3:-3 / analyse=0x3:0x133 / me=umh / subme=10 / psy=1 / psy_rd=1.00:0.00 / mixed_ref=1 / me_range=24 / chroma_me=1 / trellis=2 / 8x8dct=1 / cqm=0 / deadzone=21,11 / fast_pskip=1 / chroma_qp_offset=-2 / threads=12 / lookahead_threads=2 / sliced_threads=0 / nr=0 / decimate=1 / interlaced=0 / bluray_compat=0 / constrained_intra=0 / bframes=8 / b_pyramid=2 / b_adapt=2 / b_bias=0 / direct=3 / weightb=1 / open_gop=0 / weightp=2 / keyint=250 / keyint_min=23 / scenecut=40 / intra_refresh=0 / rc=crf / mbtree=0 / crf=16.5 / qcomp=0.60 / qpmin=0 / qpmax=69 / qpstep=4 / ip_ratio=1.40 / pb_ratio=1.30 / aq=1:0.80
Language : English
Default : Yes
Forced : No

Audio #1
ID : 2
Format : AC-3
Format/Info : Audio Coding 3
Mode extension : CM (complete main)
Format settings, Endianness : Big
Codec ID : A_AC3
Duration : 29mn 16s
Bit rate mode : Constant
Bit rate : 384 Kbps
Channel(s) : 6 channels
Channel positions : Front: L C R, Side: L R, LFE
Sampling rate : 48.0 KHz
Frame rate : 31.250 fps (1536 spf)
Compression mode : Lossy
Stream size : 80.4 MiB (7%)
Title : KvK 5.1
Language : Russian
Default : Yes
Forced : No

Audio #2
ID : 3
Format : AC-3
Format/Info : Audio Coding 3
Mode extension : CM (complete main)
Format settings, Endianness : Big
Codec ID : A_AC3
Duration : 29mn 16s
Bit rate mode : Constant
Bit rate : 384 Kbps
Channel(s) : 6 channels
Channel positions : Front: L C R, Side: L R, LFE
Sampling rate : 48.0 KHz
Frame rate : 31.250 fps (1536 spf)
Compression mode : Lossy
Stream size : 80.4 MiB (7%)
Title : English 5.1
Language : English
Default : No
Forced : No

Text
ID : 4
Format : UTF-8
Codec ID : S_TEXT/UTF8
Codec ID/Info : UTF-8 Plain Text
Title : Eng sub
Language : English
Default : No
Forced : No
pb.wtf
!Ворон писал(а):

Релиз по заказу Стол заказов всего и вся!!!



Скачать Кремниевая долина через торрент http://ne3de.mzqxg5dqnfrs44tv.cmle.ru/big/2014/0506/77/380b0795dcb0376b735c5f73a2b57277.png Скачать фильм Кремниевая долина через торрент бесплантно в хорошем качестве Описание фильма: Жизнь в Силиконовой долине – жестокая борьба за место под калифорнийским солнцем. Каждый здесь мечтает стать новым ... 9.2 10 5
Торрент: Зарегистрирован [2016-01-03 15:54] · скачан: 383 раз
Статус: √ проверено
Размер: 10.04 GB
Как cкачать? Как скачать Кремниевая долина через торрент | qTorrent

28-11-2019 20:33  

Отключить всю рекламу на сайте

    Дорогой пользователь! Огромная просьба, поблагодарите релизера, оцените раздачу и оставьте свои комментарий, если Вы скачали Кремниевая долина через торрент бесплатно! Внесите свою лепту в развитие PiratBit!
    Комментировать посты могут только пользователи прошедшие не сложную регистрацию
    Показать сообщения:    

    Кремниевая долина через торрент
    Скачать бесплатно Кремниевая долина
    Кремниевая долина скачать торрент
    Кремниевая долина смотреть онлайн
    Cкачать фильм Кремниевая долина бесплатно
    Кремниевая долина скачать торрент в хорошем качестве
    Кремниевая долина смотреть онлайн бесплатно в хорошем качестве


    Вы не можете начинать темы
    Вы не можете отвечать на сообщения
    Вы не можете редактировать свои сообщения
    Вы не можете удалять свои сообщения
    Вы не можете голосовать в опросах
    Вы не можете прикреплять файлы к сообщениям
    Вы можете скачивать файлы