Ссылка на приватное зеркало всего за 1$. Внимание количество ограничено!!!

iTunes

iTunes

iTunes

1

iTunes

iTunes

iTunes

iTunes

iTunes

30
pack

Новость дня

ВАЖНО

!!Акция!!

Alien_RageХит недели

RePack

Resident Evil 21

ИГРА 18+

pack

RePack

jed

!!Акция!!

Alien_Rage

RePack

fifa19

RePack

Assassins Creed: Odyssey

RePack

NEED FOR SPEED™ PAYBACK

4 сезон

9 сезон

Бесстыжие 9 сезон

Все сериалы

все сериалы на PB.wtf

RePack

FAR CRY 5
  

Метаморфозис (Сергей Тарамаев, Любовь Львова) [2015 г., драма, WEB-DLRip, Оригинал "iTunes"] pb.wtf

Метаморфозис через торрент pb.wtf

Размер: 1.86 GB | Добавлен: 4 года 4 мес. назад | Торрент скачан:162 раза
Скачать  

03-01-2016 18:20 Метаморфозис Скачать торрент  

Метаморфозис
Год выпуска: 2015
Страна: Россия
Жанр: драма
Продолжительность: 01:43:08
Перевод: Оригинал (iTunes)

Режиссер: Сергей Тарамаев, Любовь Львова



В ролях: Егор Корешков, Евгений Ткачук, Василиса Бернаскони, Юлия Ауг, Ёла Санько, Денис Шведов, Амбарцум Кабанян, Сергей Русскин, Николай Орловский, Светлана Столярова

Описание: Жизнь талантливого пианиста Алексея Сенина — это репетиции, концерты, музыка. Ничего, кроме музыки. Мать, целиком подчинившая своей безумной любовью сына. Тетка, озабоченная исключительно бытом. Предприимчивый директор Влад. Ближний круг — из абсолютно чужих ему людей.

В свои двадцать пять Алексей, несмотря на известность и признание, словно одинокий несчастный ребенок. Однажды, выступая в доме состоятельного бизнесмена, он знакомится с дочкой хозяина, 11-летней Сашей. И в ней он находит родственную душу. Их невинная дружба вызывает вокруг страшную бурю злобы, запретов и насилия.

Девочка и музыкант — два чистых и светлых человека, против которых ополчился циничный, жестокий и больной мир…

Качество: WEB-DLRip
Формат: AVI
Видео кодек: XviD
Аудио кодек: AC3
Видео: 720x304 (2.37:1), 24.000 fps, XviD build 50 ~2187 kbps avg, 0.42 bit/pixel
Аудио: 48 kHz, AC3 Dolby Digital, 3/2 (L,C,R,l,r) + LFE ch, ~384 kbps

Общее
Полное имя : F:\кино\Метаморфозис.2015.O.WEB-DLRip.avi
Формат : AVI
Формат/Информация : Audio Video Interleave
Размер файла : 1,86 Гбайт
Продолжительность : 1 ч. 43 м.
Общий поток : 2580 Кбит/сек
Программа кодирования : VirtualDubMod 1.5.10.3 | www.virtualdub-fr.org || (build 2550/release)
Библиотека кодирования : VirtualDubMod build 2550/release

Видео
Идентификатор : 0
Формат : MPEG-4 Visual
Профиль формата : Advanced Simple@L5
Параметр BVOP формата : 2
Параметр QPel формата : Нет
Параметр GMC формата : Без точки перехода
Параметр матрицы формата : Default (H.263)
Идентификатор кодека : XVID
Идентификатор кодека/Подсказка : XviD
Продолжительность : 1 ч. 43 м.
Битрейт : 2187 Кбит/сек
Ширина : 720 пикселей
Высота : 304 пикселя
Соотношение сторон : 2,35:1
Частота кадров : 24,000 кадра/сек
Цветовое пространство : YUV
Субдискретизация насыщенности : 4:2:0
Битовая глубина : 8 бит
Тип развёртки : Прогрессивная
Метод сжатия : С потерями
Бит/(Пиксели*Кадры) : 0.416
Размер потока : 1,58 Гбайт (85%)
Библиотека кодирования : XviD 1.2.1 (UTC 2008-12-04)

Аудио
Идентификатор : 1
Формат : AC-3
Формат/Информация : Audio Coding 3
Расширение режима : CM (complete main)
Параметр Endianness формата : Big
Идентификатор кодека : 2000
Продолжительность : 1 ч. 43 м.
Вид битрейта : Постоянный
Битрейт : 384 Кбит/сек
Каналы : 6 каналов
Расположение каналов : Front: L C R, Side: L R, LFE
Частота : 48,0 КГц
Частота кадров : 31,250 кадров/сек (1536 spf)
Метод сжатия : С потерями
Размер потока : 283 Мбайт (15%)
Выравнивание : Разделение по промежуткам
Продолжительность промежутка : 42 мс. (1,00 видеокадр)
Время предзагрузки промежутка : 500 мс.

pb.wtf



Скачать Метаморфозис через торрент http://pic.kartinco.top/images/11/87zb3.jpg Скачать фильм Метаморфозис через торрент бесплантно в хорошем качестве Описание: Жизнь талантливого пианиста Алексея Сенина — это репетиции, концерты, музыка. Ничего, кроме музыки. Мать, целиком подчинившая ... 6.6 10 5
Торрент: Зарегистрирован [2016-01-03 18:20] · скачан: 162 раз
Статус: √ проверено
Размер: 1.86 GB
Как cкачать? Как скачать Метаморфозис через торрент | qTorrent

28-11-2019 20:33  

Отключить всю рекламу на сайте

    Дорогой пользователь! Огромная просьба, поблагодарите релизера, оцените раздачу и оставьте свои комментарий, если Вы скачали Метаморфозис через торрент бесплатно! Внесите свою лепту в развитие PiratBit!
    Комментировать посты могут только пользователи прошедшие не сложную регистрацию
    Показать сообщения:    

    Метаморфозис через торрент
    Скачать бесплатно Метаморфозис
    Метаморфозис скачать торрент
    Метаморфозис смотреть онлайн
    Cкачать фильм Метаморфозис бесплатно
    Метаморфозис скачать торрент в хорошем качестве
    Метаморфозис смотреть онлайн бесплатно в хорошем качестве


    Вы не можете начинать темы
    Вы не можете отвечать на сообщения
    Вы не можете редактировать свои сообщения
    Вы не можете удалять свои сообщения
    Вы не можете голосовать в опросах
    Вы не можете прикреплять файлы к сообщениям
    Вы можете скачивать файлы