Лицензия

MVO

1

1 сезон

Лицензия

Лицензия

13

MVO

1 сезон

Deluxe Edition

pack

Рекомендуем

30

Repack

ВАЖНО

ВАЖНО

Ghostwire

RePack

jed

RePack

fifa19

RePack

RDR2

RePack

NEED FOR SPEED™ PAYBACK

RePack

Кинопоиск HD

 Острые козырьки 6 сезон

6 сезон

FAR CRY 6

RePack

Лицензия

MVO

1

1 сезон

1 сезон

Лицензия

  

Эверест / Everest (Бальтасар Кормакур / Baltasar Kormákur) [2015, триллер, драма, приключения, BDRip 720p от potroks] DUB Лицензия

Эверест через торрент pb.wtf

Раздают: 1 [ 0 KB/s ]
Размер: 4.37 GB | Добавлен: 6 лет 8 мес. назад | Торрент скачан:1040 раз
Смотреть онлайн Эверест | Скачать   

04-01-2016 09:01 Эверест Скачать торрент  

Эверест / Everest
«Самое опасное место на планете»
Год выпуска: 2015
Страна: США, Великобритания, Исландия / Universal Pictures...
Жанр: триллер, драма, приключения, биография, история
Продолжительность: 02:01:10
Перевод: Дубляж [BD CEE]
Субтитры: русские (полные + форс), украинские (полные + форс), английские (Full + SDH)
Навигация по главам: есть
Режиссер: Бальтасар Кормакур / Baltasar Kormákur
В ролях:

Джейсон Кларк (Rob Hall), Джош Бролин (Beck Weathers), Джейк Джилленхол (Scott Fischer), Сэм Уортингтон (Guy Cotter), Джон Хоукс (Doug Hansen), Майкл Келли (Jon Krakauer), Ингвар Эггерт Сигюрдссон (Anatoli Boukreev), Кира Найтли (Jan Arnold), Эмили Уотсон (Helen Wilton), Робин Райт (Peach Weathers), Мартин Хендерсон (Andy «Harold» Harris), Томас М. Райт (Michael Groom)
Описание: Эверест - великая неприступная гора, покорить вершину которой мечтают многие профессиональные альпинисты. Одна из экспедиций на ее вершину закончилась настоящей трагедией, однако этот факт не останавливает отважных альпинистов.
Опытный инструктор Роб Холл, собрав группу из лучших альпинистов, собирается совершить восхождение на самую высокую вершину планеты. Все эти люди полны мужества и отваги и они не остановятся ни перед чем, пока не поднимутся на вершину Эвереста. Но даже если эта гора покорится им, смогут ли они вернуться обратно живыми и невредимыми?..

Качество: BDRip 720p
Формат: MKV
Видео кодек: AVC
Аудио кодек: AC3
Видео: 1280x536 (2.40:1), 4269 kbps, 23,976 fps, 0.260 bit/pixel
Аудио#1: AC3 / 5.1 / 48 kHz / 448 kbps / 16 bit | RUS
Аудио#2: AC3 / 5.1 / 48 kHz / 448 kbps / 16 bit | ENG

Релиз группы:
Автор рипа: potroks

Код:

General
Unique ID                   : 253928076897938960224971631580946514954 (0xBF08C4C9A4D176F09D107DAF845E440A)
Complete name               : Everest.2015.DUAL.BDRip.720p.-HELLYWOOD.mkv
Format                      : Matroska
Format version              : Version 4 / Version 2
File size                   : 4.37 GiB
Duration                    : 2h 1mn
Overall bit rate            : 5 168 Kbps
Movie name                  : Everest (2015) - HELLYWOOD
Encoded date                : UTC 2010-02-22 21:41:31
Writing application         : mkvmerge v5.8.0 ('No Sleep / Pillow') built on Sep 30 2012 10:57:14
Writing library             : libebml v1.3.0 + libmatroska v1.4.0

Video
ID                          : 1
Format                      : AVC
Format/Info                 : Advanced Video Codec
Format profile              : [email protected]
Format settings, CABAC      : Yes
Format settings, ReFrames   : 9 frames
Codec ID                    : V_MPEG4/ISO/AVC
Duration                    : 2h 1mn
Bit rate                    : 4 269 Kbps
Width                       : 1 280 pixels
Height                      : 536 pixels
Display aspect ratio        : 2.40:1
Frame rate mode             : Constant
Frame rate                  : 23.976 fps
Color space                 : YUV
Chroma subsampling          : 4:2:0
Bit depth                   : 8 bits
Scan type                   : Progressive
Bits/(Pixel*Frame)          : 0.260
Stream size                 : 3.53 GiB (81%)
Title                       : potroks
Writing library             : x264 core 146 r2538 121396c
Encoding settings           : cabac=1 / ref=9 / deblock=1:-3:-3 / analyse=0x3:0x113 / me=umh / subme=11 / psy=1 / psy_rd=1.04:0.10 / mixed_ref=1 / me_range=56 / chroma_me=1 / trellis=2 / 8x8dct=1 / cqm=0 / deadzone=21,11 / fast_pskip=0 / chroma_qp_offset=-3 / threads=9 / lookahead_threads=2 / sliced_threads=0 / nr=0 / decimate=0 / interlaced=0 / bluray_compat=0 / constrained_intra=0 / bframes=10 / b_pyramid=2 / b_adapt=2 / b_bias=0 / direct=3 / weightb=1 / open_gop=0 / weightp=2 / keyint=240 / keyint_min=23 / scenecut=40 / intra_refresh=0 / rc_lookahead=60 / rc=2pass / mbtree=0 / bitrate=4269 / ratetol=1.0 / qcomp=0.70 / qpmin=0 / qpmax=69 / qpstep=4 / cplxblur=20.0 / qblur=0.5 / vbv_maxrate=14000 / vbv_bufsize=14000 / nal_hrd=none / filler=0 / ip_ratio=1.40 / pb_ratio=1.30 / aq=1:0.80
Language                    : English
Default                     : Yes
Forced                      : No

Audio #1
ID                          : 2
Format                      : AC-3
Format/Info                 : Audio Coding 3
Mode extension              : CM (complete main)
Format settings, Endianness : Big
Codec ID                    : A_AC3
Duration                    : 2h 1mn
Bit rate mode               : Constant
Bit rate                    : 448 Kbps
Channel(s)                  : 6 channels
Channel positions           : Front: L C R, Side: L R, LFE
Sampling rate               : 48.0 KHz
Frame rate                  : 31.250 fps (1536 spf)
Compression mode            : Lossy
Stream size                 : 388 MiB (9%)
Title                       : Dub | DD 5.1 @ 448 kbps - Blu-Ray CEE
Language                    : Russian
Default                     : Yes
Forced                      : No

Audio #2
ID                          : 3
Format                      : AC-3
Format/Info                 : Audio Coding 3
Mode extension              : CM (complete main)
Format settings, Endianness : Big
Codec ID                    : A_AC3
Duration                    : 2h 1mn
Bit rate mode               : Constant
Bit rate                    : 448 Kbps
Channel(s)                  : 6 channels
Channel positions           : Front: L C R, Side: L R, LFE
Sampling rate               : 48.0 KHz
Frame rate                  : 31.250 fps (1536 spf)
Compression mode            : Lossy
Stream size                 : 388 MiB (9%)
Title                       : Original | DD 5.1 @ 448 kbps
Language                    : English
Default                     : No
Forced                      : No

Text #1
ID                          : 4
Format                      : UTF-8
Codec ID                    : S_TEXT/UTF8
Codec ID/Info               : UTF-8 Plain Text
Title                       : Forced
Language                    : Russian
Default                     : Yes
Forced                      : No

Text #2
ID                          : 5
Format                      : UTF-8
Codec ID                    : S_TEXT/UTF8
Codec ID/Info               : UTF-8 Plain Text
Title                       : iTunes
Language                    : Russian
Default                     : No
Forced                      : No

Text #3
ID                          : 6
Format                      : UTF-8
Codec ID                    : S_TEXT/UTF8
Codec ID/Info               : UTF-8 Plain Text
Title                       : Forced
Language                    : Ukrainian
Default                     : No
Forced                      : No

Text #4
ID                          : 7
Format                      : UTF-8
Codec ID                    : S_TEXT/UTF8
Codec ID/Info               : UTF-8 Plain Text
Title                       : iTunes
Language                    : Ukrainian
Default                     : No
Forced                      : No

Text #5
ID                          : 8
Format                      : UTF-8
Codec ID                    : S_TEXT/UTF8
Codec ID/Info               : UTF-8 Plain Text
Title                       : Full
Language                    : English
Default                     : No
Forced                      : No

Text #6
ID                          : 9
Format                      : UTF-8
Codec ID                    : S_TEXT/UTF8
Codec ID/Info               : UTF-8 Plain Text
Title                       : SDH
Language                    : English
Default                     : No
Forced                      : No

Menu
00:00:00.000                : en:(01)00:00:00:000
00:05:12.145                : en:(02)00:05:12:145
00:09:36.075                : en:(03)00:09:36:075
00:15:13.162                : en:(04)00:15:13:162
00:20:58.423                : en:(05)00:20:58:423
00:26:30.714                : en:(06)00:26:30:714
00:33:15.118                : en:(07)00:33:15:118
00:40:23.754                : en:(08)00:40:23:754
00:47:23.382                : en:(09)00:47:23:382
00:52:14.589                : en:(10)00:52:14:589
00:57:49.174                : en:(11)00:57:49:174
01:01:54.794                : en:(12)01:01:54:794
01:07:22.079                : en:(13)01:07:22:079
01:15:40.577                : en:(14)01:15:40:577
01:21:03.900                : en:(15)01:21:03:900
01:26:59.589                : en:(16)01:26:59:589
01:32:39.136                : en:(17)01:32:39:136
01:41:20.449                : en:(18)01:41:20:449
01:46:47.651                : en:(19)01:46:47:651
01:54:06.464                : en:(20)01:54:06:464




Скачать Эверест через торрент http://i76.fastpic.ru/big/2015/1219/60/85dbbda5640ddd22525bcf6145d02460.png Скачать, смотреть онлайн Эверест бесплантно в хорошем качестве Описание: Эверест - великая неприступная гора, покорить вершину которой мечтают многие профессиональные альпинисты. Одна из экспедиций на ... 9.5 10 16
Info! Золотая раздача, скачанное не засчитывается.
Торрент: Зарегистрирован [2016-01-04 09:01] · скачан: 1 040 раз
Статус: √ проверено
Размер: 4.37 GB
Как cкачать? Как скачать Эверест через торрент | UTorrent

% Раздел Тема Автор DL S | L
Фильмы 2015 [DVDrip, WEB-DLRip, HDrip] [ 2.18 GB ] Эверест / Everest | Лицензия | BDRip-AVC от sokol_ok sokol_ok Скачать
2 | 0
Фильмы 2015 [DVDrip, WEB-DLRip, HDrip] [ 2.18 GB ] Эверест / Everest | Лицензия | BDRip-AVC от potroks potroks Скачать
1 | 0
Фильмы 2015 [DVDrip, WEB-DLRip, HDrip] [ 1.46 GB ] Эверест / Everest | Лицензия | BDRip от Twi7ter Twi7ter Скачать
1 | 0
Фильмы 2015 [DVDrip, WEB-DLRip, HDrip] [ 2.91 GB ] Эверест / Everest | Лицензия | BDRip-AVC от sokol_ok sokol_ok Скачать
2 | 0
Фильмы 2015 [DVDrip, WEB-DLRip, HDrip] [ 1.46 GB ] Эверест / Everest | Лицензия | BDRip-AVC от potroks potroks Скачать
1 | 0
Фильмы 2015 [DVDrip, WEB-DLRip, HDrip] [ 1.46 GB ] Эверест / Everest | Лицензия | BDRip-AVC от sokol_ok sokol_ok Скачать
2 | 0

28-11-2019 20:33  

Отключить вcю реклaмy на сайте

    Дорогой пользователь! Огромная просьба, поблагодарите релизера, оцените раздачу и оставьте свои комментарий, если Вы скачали Эверест через торрент бесплатно!!
    Комментировать посты могут только пользователи прошедшие не сложную регистрацию
    Показать сообщения:    


    Эверест через торрент
    Скачать бесплатно Эверест
    Эверест скачать торрент
    Эверест смотреть онлайн
    Cкачать фильм Эверест бесплатно
    Эверест скачать торрент в хорошем качестве
    Эверест смотреть онлайн бесплатно в хорошем качестве
    Вы не можете начинать темы
    Вы не можете отвечать на сообщения
    Вы не можете редактировать свои сообщения
    Вы не можете удалять свои сообщения
    Вы не можете голосовать в опросах
    Вы не можете прикреплять файлы к сообщениям
    Вы можете скачивать файлы