Ссылка на приватное зеркало всего за 1$. Внимание количество ограничено!!!

OK

1+1

iTunes

мы

OK

1

WEB-DLRip

Джокер

Пифагор

Ведьмак / The Witcher сериал

iTunes

ПШазам

ОК

Оно 2

iTunes

30
pack

Вам бонус

ВАЖНО

!!Акция!!

Alien_RageХит недели

RePack

Resident Evil 21

ИГРА 18+

pack

RePack

jed

RePack

fifa19

RePack

Assassins Creed: Odyssey

RePack

NEED FOR SPEED™ PAYBACK

4 сезон

9 сезон

Бесстыжие 9 сезон

Все сериалы

все сериалы на PB.wtf

RePack

FAR CRY 5
  

Скауты против зомби / Scouts Guide to the Zombie Apocalypse (Кристофер Лэндон / Christopher Landon) [2015, ужасы, комедия, BDRip-AVC от potroks] DUB Лицензия pb.wtf

Скауты против зомби через торрент pb.wtf

Размер: 2.18 GB | Добавлен: 4 года назад | Торрент скачан:357 раз
Скачать  

04-01-2016 22:55 Скауты против зомби Скачать торрент  

Скауты против зомби / Scouts Guide to the Zombie Apocalypse
«Предохраняйся»
Год выпуска: 2015
Страна: США / Paramount Pictures...
Жанр: ужасы, комедия
Продолжительность: 01:32:43
Перевод: Дубляж [BD CEE]
Субтитры: русские, украинские, английские (Full), английские (SDH)
Навигация по главам: есть
Режиссер: Кристофер Лэндон / Christopher Landon
В ролях:

Тай Шеридан (Ben Goudy), Логан Миллер (Carter Grant), Джои Морган (Augie Foster), Сара Дюмон (Denise Russo), Дэвид Кокнер (Scout Leader Rogers), Холстон Сейдж (Kendall Grant), Клорис Личмен (Miss Fielder), Ники Косс (Chloe), Хирам А. Мюррэй (Corporal Reeves), Лукас Гейдж (Travis), Дрю Дродж (Drunk Man), Патрик Шварценеггер (Jeff)
Описание: Встречайте самую нелепую команду героев в мире - трое закадычных друзей-бойскаутов и безбашенная официантка. Именно им выпадает миссия остановить зомбиапокалипсис, который уже погрузил в хаос захолустный сонный городок и грозит охватить всю планету. Последняя надежда человечества - скаутские приемы и умения. К борьбе с зомби будь готов! Всегда готов!

Качество: BDRip-AVC
Формат: MKV
Видео кодек: AVC
Аудио кодек: AC3
Видео: 1044x436 (2.40:1), 2469 kbps, 23,976 fps, 0.226 bit/pixel
Аудио#1: AC3 / 5.1 / 48 kHz / 448 kbps / 16 bit | RUS
Аудио#2: AC3 / 5.1 / 48 kHz / 448 kbps / 16 bit | ENG

Релиз группы:
Автор рипа: potroks

Код:

General
Unique ID                   : 199547011540495039569047373928485318687 (0x961F5B428718C4F99779019CA99F701F)
Complete name               : Skauty.Protiv.Zombi.2015.DUAL.BDRip.x264.-HELLYWOOD.mkv
Format                      : Matroska
Format version              : Version 4 / Version 2
File size                   : 2.18 GiB
Duration                    : 1h 32mn
Overall bit rate            : 3 367 Kbps
Movie name                  : Scouts Guide to the Zombie Apocalypse (2015) - HELLYWOOD
Encoded date                : UTC 2010-02-22 21:41:31
Writing application         : mkvmerge v5.8.0 ('No Sleep / Pillow') built on Sep 30 2012 10:57:14
Writing library             : libebml v1.3.0 + libmatroska v1.4.0

Video
ID                          : 1
Format                      : AVC
Format/Info                 : Advanced Video Codec
Format profile              : High@L4.1
Format settings, CABAC      : Yes
Format settings, ReFrames   : 10 frames
Codec ID                    : V_MPEG4/ISO/AVC
Duration                    : 1h 32mn
Bit rate                    : 2 469 Kbps
Width                       : 1 044 pixels
Height                      : 436 pixels
Display aspect ratio        : 2.40:1
Frame rate mode             : Constant
Frame rate                  : 23.976 fps
Color space                 : YUV
Chroma subsampling          : 4:2:0
Bit depth                   : 8 bits
Scan type                   : Progressive
Bits/(Pixel*Frame)          : 0.226
Stream size                 : 1.56 GiB (71%)
Title                       : potroks
Writing library             : x264 core 146 r2538 121396c
Encoding settings           : cabac=1 / ref=10 / deblock=1:-2:-2 / analyse=0x3:0x113 / me=umh / subme=11 / psy=1 / psy_rd=1.00:0.05 / mixed_ref=1 / me_range=48 / chroma_me=1 / trellis=2 / 8x8dct=1 / cqm=0 / deadzone=21,11 / fast_pskip=0 / chroma_qp_offset=-3 / threads=9 / lookahead_threads=2 / sliced_threads=0 / nr=0 / decimate=0 / interlaced=0 / bluray_compat=0 / constrained_intra=0 / bframes=11 / b_pyramid=2 / b_adapt=2 / b_bias=0 / direct=3 / weightb=1 / open_gop=0 / weightp=2 / keyint=250 / keyint_min=23 / scenecut=40 / intra_refresh=0 / rc_lookahead=60 / rc=2pass / mbtree=0 / bitrate=2469 / ratetol=1.0 / qcomp=0.70 / qpmin=0 / qpmax=69 / qpstep=4 / cplxblur=20.0 / qblur=0.5 / vbv_maxrate=14000 / vbv_bufsize=14000 / nal_hrd=none / filler=0 / ip_ratio=1.35 / pb_ratio=1.25 / aq=1:0.80
Language                    : English
Default                     : Yes
Forced                      : No

Audio #1
ID                          : 2
Format                      : AC-3
Format/Info                 : Audio Coding 3
Mode extension              : CM (complete main)
Format settings, Endianness : Big
Codec ID                    : A_AC3
Duration                    : 1h 32mn
Bit rate mode               : Constant
Bit rate                    : 448 Kbps
Channel(s)                  : 6 channels
Channel positions           : Front: L C R, Side: L R, LFE
Sampling rate               : 48.0 KHz
Frame rate                  : 31.250 fps (1536 spf)
Compression mode            : Lossy
Stream size                 : 297 MiB (13%)
Title                       : Dub | DD 5.1 @ 448 kbps - Blu-Ray CEE
Language                    : Russian
Default                     : Yes
Forced                      : No

Audio #2
ID                          : 3
Format                      : AC-3
Format/Info                 : Audio Coding 3
Mode extension              : CM (complete main)
Format settings, Endianness : Big
Codec ID                    : A_AC3
Duration                    : 1h 32mn
Bit rate mode               : Constant
Bit rate                    : 448 Kbps
Channel(s)                  : 6 channels
Channel positions           : Front: L C R, Side: L R, LFE
Sampling rate               : 48.0 KHz
Frame rate                  : 31.250 fps (1536 spf)
Compression mode            : Lossy
Stream size                 : 297 MiB (13%)
Title                       : Original | DD 5.1 @ 448 kbps
Language                    : English
Default                     : No
Forced                      : No

Text #1
ID                          : 4
Format                      : UTF-8
Codec ID                    : S_TEXT/UTF8
Codec ID/Info               : UTF-8 Plain Text
Language                    : Russian
Default                     : No
Forced                      : No

Text #2
ID                          : 5
Format                      : UTF-8
Codec ID                    : S_TEXT/UTF8
Codec ID/Info               : UTF-8 Plain Text
Language                    : Ukrainian
Default                     : No
Forced                      : No

Text #3
ID                          : 6
Format                      : UTF-8
Codec ID                    : S_TEXT/UTF8
Codec ID/Info               : UTF-8 Plain Text
Title                       : Full
Language                    : English
Default                     : No
Forced                      : No

Text #4
ID                          : 7
Format                      : UTF-8
Codec ID                    : S_TEXT/UTF8
Codec ID/Info               : UTF-8 Plain Text
Title                       : SDH
Language                    : English
Default                     : No
Forced                      : No

Menu
00:00:00.000                : en:(01)00:00:00:000
00:06:45.154                : en:(02)00:06:45:154
00:14:53.767                : en:(03)00:14:53:767
00:21:31.164                : en:(04)00:21:31:164
00:27:01.953                : en:(05)00:27:01:953
00:31:30.597                : en:(06)00:31:30:597
00:39:25.237                : en:(07)00:39:25:237
00:45:57.838                : en:(08)00:45:57:838
00:51:13.987                : en:(09)00:51:13:987
00:57:32.198                : en:(10)00:57:32:198
01:06:08.130                : en:(11)01:06:08:130
01:12:08.949                : en:(12)01:12:08:949
01:20:00.003                : en:(13)01:20:00:003
01:26:04.534                : en:(14)01:26:04:534

pb.wtf



Скачать Скауты против зомби через торрент http://i75.fastpic.ru/big/2016/0105/63/13b3a7c785cdb7ee0e668a6f1dbedf63.png Скачать фильм Скауты против зомби через торрент бесплантно в хорошем качестве Описание: Встречайте самую нелепую команду героев в мире - трое закадычных друзей-бойскаутов и безбашенная официантка. Именно им выпадает ... 8.8 10 11
Info! Золотая раздача, скачанное не засчитывается.
Торрент: Зарегистрирован [2016-01-23 02:46] · скачан: 357 раз
Статус: √ проверено
Размер: 2.18 GB
Как cкачать? Как скачать Скауты против зомби через торрент | qTorrent

% Раздел Тема Автор DL S | L
Фильмы 2015 [DVDrip, WEB-DLRip, HDrip] [ 1.46 GB ] Скауты против зомби / Scouts Guide to the Zombie Apocalypse [2015 BDRip-AVC] DUB potroks Скачать
1 | 0
Фильмы 2015 [DVDrip, WEB-DLRip, HDrip] [ 1.46 GB ] Скауты против зомби / Scouts Guide to the Zombie Apocalypse [2015 BDRip] DUB Twi7ter Скачать
1 | 0
Фильмы 2015 [DVDrip, WEB-DLRip, HDrip] [ 2.18 GB ] Скауты против зомби / Scouts Guide to the Zombie Apocalypse [2015 BDRip-AVC от sokol_ok] DUB sokol_ok Скачать
2 | 0
Фильмы 2015 [DVDrip, WEB-DLRip, HDrip] [ 1.46 GB ] Скауты против зомби / Scouts Guide to the Zombie Apocalypse [2015 BDRip-AVC от sokol_ok] DUB sokol_ok Скачать
2 | 0

28-11-2019 20:33  

Отключить всю рекламу на сайте

23-01-2016 02:46 Скауты против зомби Скачать торрент  

замена звука на лицензиюpb.wtf



    Дорогой пользователь! Огромная просьба, поблагодарите релизера, оцените раздачу и оставьте свои комментарий, если Вы скачали Скауты против зомби через торрент бесплатно! Внесите свою лепту в развитие PiratBit!
    Комментировать посты могут только пользователи прошедшие не сложную регистрацию
    Показать сообщения:    

    Скауты против зомби через торрент
    Скачать бесплатно Скауты против зомби
    Скауты против зомби скачать торрент
    Скауты против зомби смотреть онлайн
    Cкачать фильм Скауты против зомби бесплатно
    Скауты против зомби скачать торрент в хорошем качестве
    Скауты против зомби смотреть онлайн бесплатно в хорошем качестве


    Вы не можете начинать темы
    Вы не можете отвечать на сообщения
    Вы не можете редактировать свои сообщения
    Вы не можете удалять свои сообщения
    Вы не можете голосовать в опросах
    Вы не можете прикреплять файлы к сообщениям
    Вы можете скачивать файлы