Ссылка на приватное зеркало нашего сайта всего за 1$. Внимание количество ограничено!!!

2 сезон

iTunes

1 сезон

1

iTunes

iTunes

iTunes

1 сезон

RePack

30

ИГРА 18+

pack

ВАЖНО

!!Акция!!

Alien_RageХит недели

RePack

MK11
pack

Забери бонус

RePack

jed

!!Акция!!

Alien_Rage

RePack

fifa19

RePack

Assassins Creed: Odyssey

RePack

NEED FOR SPEED™ PAYBACK

4 сезон

9 сезон

Бесстыжие 9 сезон

Все сериалы

все сериалы на PB.wtf

RePack

FAR CRY 5
  

Лэйк Плэсид. Озеро страха / Lake Placid (Стив Майнер) [1999, ужасы, комедия, BDRip 1080p by msltel] DUB, 2 x MVO, 3 x AVO pb.wtf

Лэйк Плэсид. Озеро страха через торрент pb.wtf

Размер: 9.51 GB | Добавлен: 4 года 9 мес. назад | Торрент скачан:10 раз
Скачать  

05-01-2016 08:45 Лэйк Плэсид. Озеро страха Скачать торрент  

Название: Лэйк Плэсид. Озеро страха
Оригинальное название: Lake Placid
Год выпуска: 1999
Страна: США
Жанр: ужасы, комедия
Продолжительность: 01:22:08
Перевод: дублированный, профессиональный многоголосый, авторский

Режиссёр: Стив Майнер

В ролях: Билл Пуллман, Бриджит Фонда, Оливер Плэтт, Брендан Глисон, Бетти Уайт, Дэвид Льюис, Тим Диксон, Натасия Мальте, Маришка Харгитей, Мередит Селенджер, Джед Риис, Ричард Ликок, Джэйк Т. Робертс, Уоррен Текучи, Тай Олссон, Адам Аркин, Стив Майнер

Описание: Лэйк Плэсид, тихое озеро, скрытое в девственных заповедных лесах Америки, завораживает своей древней красотой. Но эти спокойные воды окутывает ужасающая тайна, грозящая гибелью тем, кто захочет раскрыть её. На тёмном дне в предвкушении следующей жертвы затаилось гигантское чудовище, которому не место ни в этом времени, ни в этом озере. Несчастного, нарушившего невидимую границу, ожидает верная смерть. Фатальная неизбежность леденит кровь и парализует разум, заставляя расставаться с надеждой на спасение. Какую цену придётся заплатить, чтобы узнать тайну Озера Страха?...



Качество: BDRip 1080p Сравнение с исходником
Формат: MKV
Видео: MPEG-4 AVC, 12.3 Mбит/с, 1912x812, 23,976 кадра/с
Аудио 1: русский, AC3, 256 kbps, 2 ch, 48 kHz [дублированный, Парадиз]
Аудио 2: русский, AC3, 384 kbps, 6 ch, 48 kHz [профессиональный многоголосый, R5]
Аудио 3: русский, DTS, 1509 kbps, 6 ch, 48 kHz [авторский, Юрий Живов]

Внешние файлы
Аудио: русский, AC3, 192 kbps, 2 ch, 48 kHz [профессиональный многоголосый, PTP]
Аудио: русский, AC3, 192 kbps, 2 ch, 48 kHz [авторский, Антон Дольский]
Аудио: русский, AC3, 192 kbps, 2 ch, 48 kHz [авторский, Александр Кашкин]
Аудио: английский, DTS, 1509 kbps, 6 ch, 48 kHz [оригинал]
Субтитры: английские (для слабослышащих)
Общее
Полное имя : D:VideoЛэйк Плэсид.1999.BDRip.1080pЛэйк Плэсид.1999.AVO.rus.А.Дольский.ac3
Формат : AC-3
Формат/Информация : Audio Coding 3
Размер файла : 113 Мбайт
Продолжительность : 1 ч. 22 м.
Режим общего битрейта : Постоянный
Общий поток : 192 Кбит/сек

Аудио
Формат : AC-3
Формат/Информация : Audio Coding 3
Расширение режима : CM (complete main)
Параметр Endianness формата : Big
Продолжительность : 1 ч. 22 м.
Вид битрейта : Постоянный
Битрейт : 192 Кбит/сек
Каналы : 2 канала
Расположение каналов : Front: L R
Частота : 48,0 КГц
Частота кадров : 31,250 кадров/сек (1536 spf)
Метод сжатия : С потерями
Размер потока : 113 Мбайт (100%)

Общее
Полное имя : D:VideoЛэйк Плэсид.1999.BDRip.1080pЛэйк Плэсид.1999.AVO.rus.А.Кашкин.ac3
Формат : AC-3
Формат/Информация : Audio Coding 3
Размер файла : 113 Мбайт
Продолжительность : 1 ч. 22 м.
Режим общего битрейта : Постоянный
Общий поток : 192 Кбит/сек

Аудио
Формат : AC-3
Формат/Информация : Audio Coding 3
Расширение режима : CM (complete main)
Параметр Endianness формата : Big
Продолжительность : 1 ч. 22 м.
Вид битрейта : Постоянный
Битрейт : 192 Кбит/сек
Каналы : 2 канала
Расположение каналов : Front: L R
Частота : 48,0 КГц
Частота кадров : 31,250 кадров/сек (1536 spf)
Метод сжатия : С потерями
Размер потока : 113 Мбайт (100%)

Общее
Уникальный идентификатор : 182288650097284939808133637040258626265 (0x892384586FA8AF32B775561705F332D9)
Полное имя : D:VideoЛэйк Плэсид.1999.BDRip.1080pЛэйк Плэсид.1999.BDRip.1080p.mkv
Формат : Matroska
Версия формата : Version 4 / Version 2
Размер файла : 8,32 Гбайт
Продолжительность : 1 ч. 22 м.
Общий поток : 14,5 Мбит/сек
Дата кодирования : UTC 2016-01-05 06:39:39
Программа кодирования : mkvmerge v8.2.0 ('World of Adventure') 64bit
Библиотека кодирования : libebml v1.3.1 + libmatroska v1.4.2

Видео
Идентификатор : 1
Формат : AVC
Формат/Информация : Advanced Video Codec
Профиль формата : High@L4.1
Параметр CABAC формата : Да
Параметр ReFrames формата : 4 кадра
Идентификатор кодека : V_MPEG4/ISO/AVC
Продолжительность : 1 ч. 22 м.
Битрейт : 12,3 Мбит/сек
Ширина : 1912 пикселей
Высота : 812 пикселей
Соотношение сторон : 2,35:1
Режим частоты кадров : Постоянный
Частота кадров : 23,976 (24000/1001) кадра/сек
Цветовое пространство : YUV
Субдискретизация насыщенности : 4:2:0
Битовая глубина : 8 бит
Тип развёртки : Прогрессивная
Бит/(Пиксели*Кадры) : 0.332
Размер потока : 7,08 Гбайт (85%)
Библиотека кодирования : x264 core 146 r2538 121396c
Настройки программы : cabac=1 / ref=4 / deblock=1:-3:-3 / analyse=0x3:0x113 / me=umh / subme=10 / psy=1 / psy_rd=1.00:0.15 / mixed_ref=1 / me_range=32 / chroma_me=1 / trellis=2 / 8x8dct=1 / cqm=0 / deadzone=21,11 / fast_pskip=1 / chroma_qp_offset=-3 / threads=6 / lookahead_threads=1 / sliced_threads=0 / nr=0 / decimate=1 / interlaced=0 / bluray_compat=0 / constrained_intra=0 / bframes=8 / b_pyramid=2 / b_adapt=2 / b_bias=0 / direct=1 / weightb=1 / open_gop=0 / weightp=2 / keyint=230 / keyint_min=23 / scenecut=40 / intra_refresh=0 / rc_lookahead=40 / rc=crf / mbtree=0 / crf=17.6 / qcomp=0.60 / qpmin=0 / qpmax=69 / qpstep=4 / vbv_maxrate=40000 / vbv_bufsize=50000 / crf_max=0.0 / nal_hrd=none / filler=0 / ip_ratio=1.40 / pb_ratio=1.30 / aq=1:1.00
Язык : English
Default : Да
Forced : Нет

Аудио #1
Идентификатор : 2
Формат : AC-3
Формат/Информация : Audio Coding 3
Расширение режима : CM (complete main)
Параметр Endianness формата : Big
Идентификатор кодека : A_AC3
Продолжительность : 1 ч. 22 м.
Вид битрейта : Постоянный
Битрейт : 256 Кбит/сек
Каналы : 2 канала
Расположение каналов : Front: L R
Частота : 48,0 КГц
Частота кадров : 31,250 кадров/сек (1536 spf)
Метод сжатия : С потерями
Размер потока : 150 Мбайт (2%)
Заголовок : DUB (Парадиз)
Язык : Russian
Default : Да
Forced : Нет

Аудио #2
Идентификатор : 3
Формат : AC-3
Формат/Информация : Audio Coding 3
Расширение режима : CM (complete main)
Параметр Endianness формата : Big
Идентификатор кодека : A_AC3
Продолжительность : 1 ч. 22 м.
Вид битрейта : Постоянный
Битрейт : 384 Кбит/сек
Каналы : 6 каналов
Расположение каналов : Front: L C R, Side: L R, LFE
Частота : 48,0 КГц
Частота кадров : 31,250 кадров/сек (1536 spf)
Метод сжатия : С потерями
Размер потока : 226 Мбайт (3%)
Заголовок : MVO (R5)
Язык : Russian
Default : Нет
Forced : Нет

Аудио #3
Идентификатор : 4
Формат : DTS
Формат/Информация : Digital Theater Systems
Режим : 16
Параметр Endianness формата : Big
Идентификатор кодека : A_DTS
Продолжительность : 1 ч. 22 м.
Вид битрейта : Постоянный
Битрейт : 1509 Кбит/сек
Каналы : 6 каналов
Расположение каналов : Front: L C R, Side: L R, LFE
Частота : 48,0 КГц
Частота кадров : 93,750 кадра/сек (512 spf)
Битовая глубина : 24 бит
Метод сжатия : С потерями
Размер потока : 886 Мбайт (10%)
Заголовок : AVO (Юрий Живов)
Язык : Russian
Default : Нет
Forced : Нет

Общее
Полное имя : D:VideoЛэйк Плэсид.1999.BDRip.1080pЛэйк Плэсид.1999.eng.SDH.srt
Размер файла : 192 Кбайт

Общее
Полное имя : D:VideoЛэйк Плэсид.1999.BDRip.1080pЛэйк Плэсид.1999.MVO.rus.PTP.ac3
Формат : AC-3
Формат/Информация : Audio Coding 3
Размер файла : 113 Мбайт
Продолжительность : 1 ч. 22 м.
Режим общего битрейта : Постоянный
Общий поток : 192 Кбит/сек

Аудио
Формат : AC-3
Формат/Информация : Audio Coding 3
Расширение режима : CM (complete main)
Параметр Endianness формата : Big
Продолжительность : 1 ч. 22 м.
Вид битрейта : Постоянный
Битрейт : 192 Кбит/сек
Каналы : 2 канала
Расположение каналов : Front: L R
Частота : 48,0 КГц
Частота кадров : 31,250 кадров/сек (1536 spf)
Метод сжатия : С потерями
Размер потока : 113 Мбайт (100%)

Общее
Полное имя : D:VideoЛэйк Плэсид.1999.BDRip.1080pЛэйк Плэсид.1999.Original.eng.dts
Формат : DTS
Формат/Информация : Digital Theater Systems
Размер файла : 886 Мбайт
Продолжительность : 1 ч. 22 м.
Режим общего битрейта : Постоянный
Общий поток : 1509 Кбит/сек

Аудио
Формат : DTS
Формат/Информация : Digital Theater Systems
Режим : 16
Параметр Endianness формата : Big
Продолжительность : 1 ч. 22 м.
Вид битрейта : Постоянный
Битрейт : 1509 Кбит/сек
Каналы : 6 каналов
Расположение каналов : Front: L C R, Side: L R, LFE
Частота : 48,0 КГц
Частота кадров : 93,750 кадра/сек (512 spf)
Битовая глубина : 24 бит
Метод сжатия : С потерями
Размер потока : 886 Мбайт
pb.wtf



Скачать Лэйк Плэсид. Озеро страха через торрент http://s019.radikal.ru/i633/1601/1a/5f0490dac7df.png Скачать фильм Лэйк Плэсид. Озеро страха через торрент бесплантно в хорошем качестве Описание: Лэйк Плэсид, тихое озеро, скрытое в девственных заповедных лесах Америки, завораживает своей древней красотой. Но эти спокойные ... 9.2 10 6
Info! Золотая раздача, скачанное не засчитывается.
Торрент: Зарегистрирован [2016-01-05 08:45] · скачан: 10 раз
Статус: √ проверено
Размер: 9.51 GB
Как cкачать? Как скачать Лэйк Плэсид. Озеро страха через торрент | qTorrent

% Раздел Тема Автор DL S | L
Фильмы [HD 720p, 1080p] (Хороший звук DUB, MVO) [ 3.52 GB ] Лэйк Плэсид. Озеро страха / Lake Placid [1999 BDRip 720p by msltel] DUB 2 x MVO 3 x AVO msltel Скачать
1 | 0
Фильмы до 2000 г. [ 2.56 GB ] Лэйк Плэсид. Озеро страха / Lake Placid [1999 BDRip AVC by msltel] DUB 2 x MVO 3 x AVO msltel Скачать
1 | 0

28-11-2019 20:33  

Отключить всю рекламу на сайте

05-01-2016 10:10 Лэйк Плэсид. Озеро страха Скачать торрент  

чот ничего комедийного не увидел в этом фильме.Если только ужастики вообще не воспринимать,как комедии))pb.wtf



    Дорогой пользователь! Огромная просьба, поблагодарите релизера, оцените раздачу и оставьте свои комментарий, если Вы скачали Лэйк Плэсид. Озеро страха через торрент бесплатно! Внесите свою лепту в развитие PiratBit!
    Комментировать посты могут только пользователи прошедшие не сложную регистрацию
    Показать сообщения:    

    Лэйк Плэсид. Озеро страха через торрент
    Скачать бесплатно Лэйк Плэсид. Озеро страха
    Лэйк Плэсид. Озеро страха скачать торрент
    Лэйк Плэсид. Озеро страха смотреть онлайн
    Cкачать фильм Лэйк Плэсид. Озеро страха бесплатно
    Лэйк Плэсид. Озеро страха скачать торрент в хорошем качестве
    Лэйк Плэсид. Озеро страха смотреть онлайн бесплатно в хорошем качестве


    Вы не можете начинать темы
    Вы не можете отвечать на сообщения
    Вы не можете редактировать свои сообщения
    Вы не можете удалять свои сообщения
    Вы не можете голосовать в опросах
    Вы не можете прикреплять файлы к сообщениям
    Вы можете скачивать файлы