Ссылка на приватное зеркало всего за 1$. Внимание количество ограничено!!!

OK

1+1

iTunes

мы

OK

1

WEB-DLRip

Джокер

Пифагор

Ведьмак / The Witcher сериал

Лицензия

ПШазам

ОК

Оно 2

iTunes

30
pack

Вам бонус

ВАЖНО

!!Акция!!

Alien_RageХит недели

RePack

Resident Evil 21

ИГРА 18+

pack

RePack

jed

!!Акция!!

Alien_Rage

RePack

fifa19

RePack

Assassins Creed: Odyssey

RePack

NEED FOR SPEED™ PAYBACK

4 сезон

9 сезон

Бесстыжие 9 сезон

Все сериалы

все сериалы на PB.wtf

RePack

FAR CRY 5
  

Бхопал: Молитва о дожде / Bhopal: A Prayer for Rain (Рави Кумар) [2014, драма, история, DVDRip] VO [С. Покровский] pb.wtf

Бхопал: Молитва о дожде через торрент pb.wtf

Размер: 1.46 GB | Добавлен: 4 года назад | Торрент скачан:19 раз
Скачать  

05-01-2016 09:12 Бхопал: Молитва о дожде Скачать торрент  


Бхопал: Молитва о дожде / Bhopal: A Prayer for Rain




Год выпуска: 2014
Страна: Великобритания, Индия
Жанр: Драма, история
Продолжительность: 01:37:48
Перевод: Любительский (одноголосый) [С. Покровский]
Реклама: В релизе отсутствуют рекламные видео и аудио вставки




Режиссер: Рави Кумар
Продюссер: Сманто Р. Рой, Рави Валия, Кемаль Ахтар
Оператор: Анил Чэндел, Чарли Вупперманн
Композитор: Бенджамин Уоллфисч
Художники: Сукант Паниграхи, Равиндар, Вивек Джадхав
Монтаж: Крис Гилл, Мария Т. Валенте
Сценарий: Дэвид Брукс, Рави Кумар




Премьера в мире: 7 ноября 2014









В ролях:

Мартин Шин, Миша Бартон, Мартин Брамбах, Кэл Пенн, Танништа Чаттерджи, Раджпал Ядав, Сатиш Каушик, Фагун Тхакрар, Маной Джоши,




Описание:В фильме показывается трагедия одного человека на фоне масштабной техногенной катастрофы, произошедшей в индийском городе Бхопал в ночь на 3 декабря 1984 года. Семья Дилипа постоянно нуждается в деньгах, сестру надо выдавать замуж, и он готов браться за любую работу. И вот его принимают в качестве разнорабочего на завод Карбайд, который производит пестициды, используя крайне опасный химикат MIC (метилизоцианат). Дилип гордится новой работой, понемногу выплачивает старые долги, готовится к свадьбе.

В Бхопал с инспекцией прибывает делегация из США во главе с директором Уорреном Андерсеном. В это же время, чтобы взять интервью у потомка Бурбонов, приезжает журналистка Ева Коффилд, но знакомится с владельцем местной газеты и общественником Мотвани, который рассказывает ей о пагубном воздействии завода на самочувствие и здоровье жителей Бхопала. Она общается с Андерсеном, делает несколько фотографий вдовы погибшего на заводе рабочего, записывает её историю.

Руководство завода принимает решение о некой технической доработке конструкции, для того чтобы производство не останавливалось на время техобслуживания. Этот, а также многие другие факторы, среди которых тотальная экономия на безопасности, изношенность оборудования, халатность и прочее, привели в конечном итоге к гибели порядка двух десятков тысяч людей и сотням тысяч пострадавших, многие из которых испытывают страдания и по сей день.




Качество: DVDRip
Формат: AVI
Видео кодек: XviD
Аудио кодек: AC3
Видео: 704x400, XviD, 25.000 fps, 1740 kbps
Аудио#1: русский - AC3, 2 ch, 48.0 kHz, 192 kbps
Аудио#2: Английский / Хинди - AC3, 2 ch, 48.0 kHz, 192 kbps
Субтитры: Нет






скриншот  скриншот  скриншот  скриншот  скриншот  
General
Complete name :
Format : AVI
Format/Info : Audio Video Interleave
File size : 1.46 GiB
Duration : 1h 37mn
Overall bit rate : 2 135 Kbps
Movie name : Bhopal. A Prayer for Rain
Writing application : VirtualDubMod 1.5.10.2 (build 2540/release)
Writing library : VirtualDubMod build 2540/release
Video #0
ID : 0
Format : MPEG-4 Visual
Format profile : Advanced Simple@L5
Format settings, BVOP : 1
Format settings, QPel : No
Format settings, GMC : No warppoints
Format settings, Matrix : Default (H.263)
Codec ID : XVID
Codec ID/Hint : XviD
Duration : 1h 37mn
Bit rate : 1 740 Kbps
Width : 704 pixels
Height : 400 pixels
Display aspect ratio : 16:9
Frame rate : 25.000 fps
Color space : YUV
Chroma subsampling : 4:2:0
Bit depth : 8 bits
Scan type : Progressive
Compression mode : Lossy
Bits/(Pixel*Frame) : 0.247
Stream size : 1.19 GiB (82%)
Writing library : XviD 67
Audio #1
ID : 1
Format : AC-3
Format/Info : Audio Coding 3
Mode extension : CM (complete main)
Format settings, Endianness : Big
Codec ID : 2000
Duration : 1h 37mn
Bit rate mode : Constant
Bit rate : 192 Kbps
Channel(s) : 2 channels
Channel positions : Front: L R
Sampling rate : 48.0 KHz
Compression mode : Lossy
Stream size : 134 MiB (9%)
Alignment : Split accross interleaves
Interleave, duration : 40 ms (1.00 video frame)
Interleave, preload duration : 500 ms
Title : Russian
Audio #2
ID : 2
Format : AC-3
Format/Info : Audio Coding 3
Mode extension : CM (complete main)
Format settings, Endianness : Big
Codec ID : 2000
Duration : 1h 37mn
Bit rate mode : Constant
Bit rate : 192 Kbps
Channel(s) : 2 channels
Channel positions : Front: L R
Sampling rate : 48.0 KHz
Bit depth : 16 bits
Compression mode : Lossy
Stream size : 134 MiB (9%)
Alignment : Aligned on interleaves
Interleave, duration : 160 ms (4.00 video frames)
Interleave, preload duration : 640 ms
Title : English


pb.wtf



Скачать Бхопал: Молитва о дожде через торрент http://pic.kartinco.top/images/11/i1dmv.jpg Скачать фильм Бхопал: Молитва о дожде через торрент бесплантно в хорошем качестве Описание:В фильме показывается трагедия одного человека на фоне масштабной техногенной катастрофы, произошедшей в индийском городе Бхопал в ... 7.8 10 4
Info! Золотая раздача, скачанное не засчитывается.
Торрент: Зарегистрирован [2016-01-05 09:12] · скачан: 19 раз
Статус: √ проверено
Размер: 1.46 GB
Как cкачать? Как скачать Бхопал: Молитва о дожде через торрент | qTorrent



Последний раз редактировалось: MicroCharmelle (2016-01-05 09:48), всего редактировалось 1 раз

28-11-2019 20:33  

Отключить всю рекламу на сайте

05-01-2016 10:10 Бхопал: Молитва о дожде Скачать торрент  

ссылка

MicroCharmelle писал(а):

Аудио#2: Английский/Хинди - AC3, 2 ch, 48.0 kHz, 192 kbps

12.14 В случае, если имеется две или более звуковых дорожек следует указать для каждой из них аудиокодек, аудиобитрейт, кол-во каналов и тип озвучки (оригинал, перевод).

Также рекомендую ссылка или ссылка

Вы вправе самостоятельно (без шаблона) оформить раздачу при условии, что укажите
[img=right]адрес обложки[/img]Название на русском / Название на оригинале
Год выпуска:
Страна:
Жанр:
Длительность:
Перевод:
Субтитры:
В ролях:
Режиссёр:
Описание:
Качество:
Формат:
Видео:Видеокодек, размер кадра (в пикселях), битрейт видео (kbps), частота смены кадра (fps), Бит/(Пиксели*Кадры) по желанию
Аудио:Аудиокодек, Битрейт аудио (kbps), количество каналов (ch), частота дискретизации (KHz)
[img]адреса скринов[/img]
(обязательно соблюдать порядок групп, желательно сохранять порядок данных в группах)
pb.wtf



    Дорогой пользователь! Огромная просьба, поблагодарите релизера, оцените раздачу и оставьте свои комментарий, если Вы скачали Бхопал: Молитва о дожде через торрент бесплатно! Внесите свою лепту в развитие PiratBit!
    Комментировать посты могут только пользователи прошедшие не сложную регистрацию
    Показать сообщения:    

    Бхопал: Молитва о дожде через торрент
    Скачать бесплатно Бхопал: Молитва о дожде
    Бхопал: Молитва о дожде скачать торрент
    Бхопал: Молитва о дожде смотреть онлайн
    Cкачать фильм Бхопал: Молитва о дожде бесплатно
    Бхопал: Молитва о дожде скачать торрент в хорошем качестве
    Бхопал: Молитва о дожде смотреть онлайн бесплатно в хорошем качестве


    Вы не можете начинать темы
    Вы не можете отвечать на сообщения
    Вы не можете редактировать свои сообщения
    Вы не можете удалять свои сообщения
    Вы не можете голосовать в опросах
    Вы не можете прикреплять файлы к сообщениям
    Вы можете скачивать файлы