2 сезон

iTunes

MVO

1

2 сезон

iTunes

iTunes

1 сезон

RePack

30

Новинка

ВАЖНО

ИГРА 18+

pack

RePack

MK11
pack

Легкие деньги

RePack

jed

RePack

fifa19

RePack

RDR2

RePack

NEED FOR SPEED™ PAYBACK

4 сезон

9 сезон

Бесстыжие 9 сезон

Все сериалы

все сериалы на PB.wtf

RePack

FAR CRY 5

Anonymous, доброй ночи, мы не успеваем собрать деньги на оплату серверов за декабрь и январь, помогите нам пожалуйста в это трудное время. В качестве благодарности мы отключим Вам всю рекламу на сайте (укажите свой ник в строку Ваше имя)!

×
  
Magnet ссылка

Linkin Park - New Divide [2009 г.] (Alternative) [WEB-Rip, 1080p] pb.wtf

Linkin Park - New Divide через торрент pb.wtf

Размер: 101 MB | Добавлен: 5 лет назад | Торрент скачан:36 раз
Скачать  

05-01-2016 13:28 Linkin Park - New Divide Скачать торрент  


Linkin Park - New Divide

Год выпуска: 2009 г.
Страна: USA
Жанр: Alternative
Продолжительность: 00:04:26
Качество видео: WEB-Rip
Контейнер: MP4
Стандарт разрешения: 1080p
Видео кодек: AVC
Аудио кодек: AAC
Видео: 1920x1080, 3066 Кбит/сек, 23,976 кадра/сек, 0.062 bit/pic
Аудио: 126 Кбит/сек, 2 канала, 44,1 КГц


01. New Divide

Код:

Общее
Полное имя                               : D:\Torrent files\Linkin Park -  New Divide 2009.mp4
Формат                                   : MPEG-4
Профиль формата                          : Base Media
Идентификатор кодека                     : isom
Размер файла                             : 101 Мбайт
Продолжительность                        : 4 м. 26 с.
Общий поток                              : 3196 Кбит/сек
Программа кодирования                    : Lavf55.12.100

Видео
Идентификатор                            : 1
Формат                                   : AVC
Формат/Информация                        : Advanced Video Codec
Профиль формата                          : High@L4
Параметр CABAC формата                   : Да
Параметр ReFrames формата                : 3 кадра
Идентификатор кодека                     : avc1
Идентификатор кодека/Информация          : Advanced Video Coding
Продолжительность                        : 4 м. 26 с.
Битрейт                                  : 3066 Кбит/сек
Ширина                                   : 1920 пикселей
Высота                                   : 1080 пикселей
Соотношение сторон                       : 16:9
Режим частоты кадров                     : Постоянный
Частота кадров                           : 23,976 кадра/сек
Цветовое пространство                    : YUV
Субдискретизация насыщенности            : 4:2:0
Битовая глубина                          : 8 бит
Тип развёртки                            : Прогрессивная
Бит/(Пиксели*Кадры)                      : 0.062
Размер потока                            : 97,3 Мбайт (96%)

Аудио
Идентификатор                            : 2
Формат                                   : AAC
Формат/Информация                        : Advanced Audio Codec
Профиль формата                          : LC
Идентификатор кодека                     : 40
Продолжительность                        : 4 м. 26 с.
Вид битрейта                             : Постоянный
Битрейт                                  : 126 Кбит/сек
Каналы                                   : 2 канала
Расположение каналов                     : Front: L R
Частота                                  : 44,1 КГц
Метод сжатия                             : С потерями
Размер потока                            : 3,99 Мбайт (4%)

скриншот  скриншот  скриншот  скриншот  
скриншот  скриншот  скриншот  скриншот  
pb.wtf



Скачать Linkin Park - New Divide через торрент http://i76.fastpic.ru/big/2016/0105/8f/518ca09973e23ad2088f920885dcad8f.png Скачать фильм Linkin Park - New Divide [2009 г.] через торрент бесплантно в хорошем качестве Трэклист New ... 9.7 10 7
Торрент: Зарегистрирован [2016-01-05 13:28] · скачан: 36 раз
Статус: √ проверено
Размер: 101 MB
Как cкачать? Как скачать Linkin Park - New Divide через торрент | UTorrent

28-11-2019 20:33  

Отключить всю рекламу на сайте

    Дорогой пользователь! Огромная просьба, поблагодарите релизера, оцените раздачу и оставьте свои комментарий, если Вы скачали Linkin Park - New Divide через торрент бесплатно! Внесите свою лепту в развитие PiratBit!
    Комментировать посты могут только пользователи прошедшие не сложную регистрацию
    Показать сообщения:    

    Linkin Park - New Divide через торрент
    Скачать бесплатно Linkin Park - New Divide
    Linkin Park - New Divide скачать торрент
    Linkin Park - New Divide смотреть онлайн
    Cкачать фильм Linkin Park - New Divide бесплатно
    Linkin Park - New Divide скачать торрент в хорошем качестве
    Linkin Park - New Divide смотреть онлайн бесплатно в хорошем качестве


    Вы не можете начинать темы
    Вы не можете отвечать на сообщения
    Вы не можете редактировать свои сообщения
    Вы не можете удалять свои сообщения
    Вы не можете голосовать в опросах
    Вы не можете прикреплять файлы к сообщениям
    Вы можете скачивать файлы