2 сезон

iTunes

MVO

1

2 сезон

iTunes

iTunes

1 сезон

RePack

30

Новинка

ВАЖНО

ИГРА 18+

pack

RePack

MK11
pack

Легкие деньги

RePack

jed

RePack

fifa19

RePack

RDR2

RePack

NEED FOR SPEED™ PAYBACK

4 сезон

9 сезон

Бесстыжие 9 сезон

Все сериалы

все сериалы на PB.wtf

RePack

FAR CRY 5

Anonymous, доброй ночи, мы не успеваем собрать деньги на оплату серверов за декабрь и январь, помогите нам пожалуйста в это трудное время. В качестве благодарности мы отключим Вам всю рекламу на сайте (укажите свой ник в строку Ваше имя)!

×
  
Magnet ссылка

Топ Гир: Народные автомобили с Джеймсом Мэем / Top Gear: James May's Cars of the People [2014, документальный, история, WEB-DL 1080p] MVO AlexFilm pb.wtf

Топ Гир: Народные автомобили с Джеймсом Мэем через торрент pb.wtf

Размер: 6.85 GB | Добавлен: 5 лет назад | Торрент скачан:88 раз
Скачать  

05-01-2016 13:29 Топ Гир: Народные автомобили с Джеймсом Мэем Скачать торрент  


Топ Гир: Народные автомобили с Джеймсом Мэем
Top Gear: James May's Cars of the People





Год выпуска: 2014
Страна: Великобритания, BBC
Жанр: Документальный, история
Продолжительность: ~00:59:00 x 3 выпуска
Перевод: Любительский (многоголосый) AlexFilm
Реклама: В релизе отсутствуют рекламные видео и аудио вставки




Режиссер: Том Уиттер
Продюссер: Том Уиттер, Пол Уильямс, Ханна Янг
Монтаж: Генри Далтон, Грег Койн, Грег Винс
Сценарий: Генри Далтон, Джеймс Мэй, Том Уиттер




Премьера в мире: 10 августа 2014









В ролях:
Джеймс Мэй




Описание: Джеймс Мэй из "Топ Гир" представляет документальную передачу о "народных автомобилях".. Рассказывая обо всех массовых машинах - от Жука до Кей-кара, - Мэй изучает их происхождение и влияние на историю.. Каждый эпизод посвящён определённой теме: автомобили диктатур, микрокары и машины, о которых мы мечтаем.. Мэй ездит на различных машинах, проводя их мини-тесты и рассказывая о них.. Кроме того, Мэй путешествует по всему миру, посещая те его уголки, которые стали родиной автомобиля, за рулём которого он находится, где также проводит небольшие испытания и тесты..




Качество: WEB-DL 1080p
Формат: MKV
Видео кодек: H.264
Аудио кодек: AC3
Видео: 1920x1080, H.264, 25 fps, 5004 kbps
Аудио#1: Русский: AC3, 2 ch, 48 kHz, 192 kbps
Аудио#2: Английский: AC3, 2 ch, 48 kHz, 192 kbps
Субтитры: Нет






скриншот  скриншот  скриншот  скриншот  скриншот  скриншот  
General
Unique ID : 216568495614672422167780602988356040530 (0xA2ED9337E3186C0380B6A324358DF752)
Complete name :
Format : Matroska
Format version : Version 4 / Version 2
File size : 2.27 GiB
Duration : 59mn 9s
Overall bit rate : 5 500 Kbps
Movie name : James May's Cars of the People E01 @ AlexFilm
Encoded date : UTC 2014-09-19 15:46:33
Writing application : mkvmerge v6.6.0 ('The Edge Of The In Between') built on Dec 1 2013 17:55:00
Writing library : libebml v1.3.0 + libmatroska v1.4.1
Video #1
ID : 1
Format : AVC
Format/Info : Advanced Video Codec
Format profile : High@L4
Format settings, CABAC : Yes
Format settings, ReFrames : 4 frames
Codec ID : V_MPEG4/ISO/AVC
Duration : 59mn 9s
Bit rate : 5 007 Kbps
Width : 1 920 pixels
Height : 1 080 pixels
Display aspect ratio : 16:9
Frame rate mode : Constant
Frame rate : 25.000 fps
Color space : YUV
Chroma subsampling : 4:2:0
Bit depth : 8 bits
Scan type : Progressive
Bits/(Pixel*Frame) : 0.097
Stream size : 2.07 GiB (91%)
Language : English
Default : Yes
Forced : No
Color range : Limited
Color primaries : BT.709
Transfer characteristics : BT.709
Matrix coefficients : BT.709
Audio #2
ID : 2
Format : AC-3
Format/Info : Audio Coding 3
Mode extension : CM (complete main)
Format settings, Endianness : Big
Codec ID : A_AC3
Duration : 59mn 9s
Bit rate mode : Constant
Bit rate : 192 Kbps
Channel(s) : 2 channels
Channel positions : Front: L R
Sampling rate : 48.0 KHz
Compression mode : Lossy
Stream size : 81.3 MiB (3%)
Title : DD2.0 AlexFilm
Language : Russian
Default : Yes
Forced : No
Audio #3
ID : 3
Format : AC-3
Format/Info : Audio Coding 3
Mode extension : CM (complete main)
Format settings, Endianness : Big
Codec ID : A_AC3
Duration : 59mn 9s
Bit rate mode : Constant
Bit rate : 192 Kbps
Channel(s) : 2 channels
Channel positions : Front: L R
Sampling rate : 48.0 KHz
Compression mode : Lossy
Stream size : 81.3 MiB (3%)
Title : DD2.0 Original
Language : English
Default : No
Forced : No


pb.wtf



Скачать Топ Гир: Народные автомобили с Джеймсом Мэем через торрент https://pic.kartinco.top/images/11/ttvlp.jpg Скачать фильм Топ Гир: Народные автомобили с Джеймсом Мэем через торрент бесплантно в хорошем качестве Описание: Джеймс Мэй из "Топ Гир" представляет документальную передачу о "народных автомобилях".. Рассказывая обо всех массовых машинах - ... 9.9 10 8
Info! Серебряная раздача, засчитывается только 50% скачанного.
Торрент: Зарегистрирован [2016-01-05 13:29] · скачан: 88 раз
Статус: √ проверено
Размер: 6.85 GB
Как cкачать? Как скачать Топ Гир: Народные автомобили с Джеймсом Мэем через торрент | UTorrent

28-11-2019 20:33  

Отключить всю рекламу на сайте

01-07-2018 20:45 Топ Гир: Народные автомобили с Джеймсом Мэем Скачать торрент  

Почти неделю нет раздающего (pb.wtf



    Дорогой пользователь! Огромная просьба, поблагодарите релизера, оцените раздачу и оставьте свои комментарий, если Вы скачали Топ Гир: Народные автомобили с Джеймсом Мэем через торрент бесплатно! Внесите свою лепту в развитие PiratBit!
    Комментировать посты могут только пользователи прошедшие не сложную регистрацию
    Показать сообщения:    

    Топ Гир: Народные автомобили с Джеймсом Мэем через торрент
    Скачать бесплатно Топ Гир: Народные автомобили с Джеймсом Мэем
    Топ Гир: Народные автомобили с Джеймсом Мэем скачать торрент
    Топ Гир: Народные автомобили с Джеймсом Мэем смотреть онлайн
    Cкачать фильм Топ Гир: Народные автомобили с Джеймсом Мэем бесплатно
    Топ Гир: Народные автомобили с Джеймсом Мэем скачать торрент в хорошем качестве
    Топ Гир: Народные автомобили с Джеймсом Мэем смотреть онлайн бесплатно в хорошем качестве


    Вы не можете начинать темы
    Вы не можете отвечать на сообщения
    Вы не можете редактировать свои сообщения
    Вы не можете удалять свои сообщения
    Вы не можете голосовать в опросах
    Вы не можете прикреплять файлы к сообщениям
    Вы можете скачивать файлы