Ссылка на приватное зеркало всего за 1$. Внимание количество ограничено!!!

OK

1+1

iTunes

мы

OK

1

WEB-DLRip

Джокер

Пифагор

Ведьмак / The Witcher сериал

Лицензия

ПШазам

ОК

Оно 2

iTunes

30
pack

Вам бонус

ВАЖНО

!!Акция!!

Alien_RageХит недели

RePack

Resident Evil 21

ИГРА 18+

pack

RePack

jed

!!Акция!!

Alien_Rage

RePack

fifa19

RePack

Assassins Creed: Odyssey

RePack

NEED FOR SPEED™ PAYBACK

4 сезон

9 сезон

Бесстыжие 9 сезон

Все сериалы

все сериалы на PB.wtf

RePack

FAR CRY 5
  

Сюрприз / De Surprise (Майк ван Дим) [2015, мелодрама, комедия, HDRip, Дубляж [Лицензия / iTunes] pb.wtf

Сюрприз через торрент pb.wtf

Размер: 1.45 GB | Добавлен: 4 года назад | Торрент скачан:220 раз
Скачать  

05-01-2016 16:32 Сюрприз Скачать торрент  

Сюрприз / De Surprise
Год выпуска » 2015
Страна » Нидерланды, Бельгия, Германия, Ирландия
Жанр » Мелодрама, комедия
Продолжительность » 01:41:00
Перевод » Профессиональный (полное дублирование) [iTunes]
Субтитры » Нет

В ролях
» Йерун ван Конингсбругге, Джорджина Вербаан, Ян Деклер, Генри Гудман, Анкур Баль, Навид Чоудри, Оливер Гатс, Ронни Джатти, Элизабет Андерсен, Тамар Баруч

Режиссёр
» Майк ван Дим / Mike van Diem
ОПИСАНИЕ:
» Эксцентричный мультимиллионер подписывает соглашение о «прекращении» своей жизни. Выбирая гроб для похорон, он знакомится с подписавшей аналогичный договор молодой женщиной. Проблемы возникают после того, как они влюбляются друг в друга и пытаются расторгнуть заключенные контракты…
• Качество » HDRip
• Формат » AVI
• Видео кодек » XviD
• Аудио кодек » AC3
• Видео » 720x304 (2.37:1), 24 fps,1648 kbps avg, 0.31 bit/pixel
• Аудио » Русский (AC-3 Dolby Digital / 6 ch / 384 kbps /16 bit )


Общее
Полное имя : E:\Surprize_2015_HDRip_[scarabey.org].avi
Формат : AVI
Формат/Информация : Audio Video Interleave
Размер файла : 1,45 Гбайт
Продолжительность : 1 ч. 41 м.
Общий поток : 2041 Кбит/сек
Программа кодирования : VirtualDubMod 1.5.10.3 | www.virtualdub-fr.org || (build 2550/release)
Библиотека кодирования : VirtualDubMod build 2550/release

Видео
Идентификатор : 0
Формат : MPEG-4 Visual
Профиль формата : Advanced Simple@L5
Параметр BVOP формата : 1
Параметр QPel формата : Нет
Параметр GMC формата : Без точки перехода
Параметр матрицы формата : Выборочная
Идентификатор кодека : XVID
Идентификатор кодека/Подсказка : XviD
Продолжительность : 1 ч. 41 м.
Битрейт : 1648 Кбит/сек
Ширина : 720 пикселей
Высота : 304 пикселя
Соотношение сторон : 2,35:1
Частота кадров : 24,000 кадра/сек
Цветовое пространство : YUV
Субдискретизация насыщенности : 4:2:0
Битовая глубина : 8 бит
Тип развёртки : Прогрессивная
Метод сжатия : С потерями
Бит/(Пиксели*Кадры) : 0.314
Размер потока : 1,17 Гбайт (81%)
Библиотека кодирования : XviD 73

Аудио
Идентификатор : 1
Формат : AC-3
Формат/Информация : Audio Coding 3
Расширение режима : CM (complete main)
Параметр Endianness формата : Big
Идентификатор кодека : 2000
Продолжительность : 1 ч. 41 м.
Вид битрейта : Постоянный
Битрейт : 384 Кбит/сек
Каналы : 6 каналов
Расположение каналов : Front: L C R, Side: L R, LFE
Частота : 48,0 КГц
Битовая глубина : 16 бит
Метод сжатия : С потерями
Размер потока : 279 Мбайт (19%)
Выравнивание : Разделение по промежуткам
Продолжительность промежутка : 42 мс. (1,00 видеокадр)
Время предзагрузки промежутка : 500 мс.
скриншот   скриншот   скриншот   скриншот   скриншот  
pb.wtf



Скачать Сюрприз через торрент http://pic1.kartinco.top/images/10/o4ltu.jpg Скачать фильм Сюрприз через торрент бесплантно в хорошем качестве ОПИСАНИЕ: » Эксцентричный мультимиллионер подписывает соглашение о «прекращении» своей жизни. Выбирая гроб для похорон, он знакомится с ... 9.8 10 13
Торрент: Зарегистрирован [2016-01-05 16:32] · скачан: 220 раз
Статус: √ проверено
Размер: 1.45 GB
Как cкачать? Как скачать Сюрприз через торрент | qTorrent

% Раздел Тема Автор DL S | L
Порно фильмы без сюжета [ 3.84 GB ] Сюрприз / Surprise [2020 All Sex Feature WEB-DL] bashai5 Скачать
12 | 0
R.G. Resident & PiratVoice - Фильмы, Видео [ 1.46 GB ] Сюрприз / De Surprise [2015 HDRip-AVC многоголосый От R.G.Resident White Smoke Скачать
1 | 0
Фильмы (WEB-DL 720p, 1080p) [ 3.08 GB ] Сюрприз / De Surprise [2015 WEB-DL 720p - / ] 10oN Скачать
1 | 0
Гонзо [ 2.08 GB ] Сперма Сюрприз Мамочек / MILF Cum Surprise [2015 All Sex Big Boobs Cumshots Gonzo Mature MILF DVDRip 406p] sheker187 Скачать
1 | 0
Фильмы 2015 [DVDrip, WEB-DLRip, HDrip] [ 1.46 GB ] Сюрприз / De Surprise [2015 WEB-DLRip] ] -Lexx- Скачать
1 | 0
Фильмы (WEB-DL 720p, 1080p) [ 3.47 GB ] Сюрприз / De Surprise [2015 WEB-DL 1080p] ] -Lexx- Скачать
1 | 0
HD ролики [ 1.07 GB ] Сексуальное видео-сюрприз / Sexy Video Surprise [2012 Blonde Gonzo BDRip ] tier-kun Скачать
1 | 0

28-11-2019 20:33  

Отключить всю рекламу на сайте

    Дорогой пользователь! Огромная просьба, поблагодарите релизера, оцените раздачу и оставьте свои комментарий, если Вы скачали Сюрприз через торрент бесплатно! Внесите свою лепту в развитие PiratBit!
    Комментировать посты могут только пользователи прошедшие не сложную регистрацию
    Показать сообщения:    

    Сюрприз через торрент
    Скачать бесплатно Сюрприз
    Сюрприз скачать торрент
    Сюрприз смотреть онлайн
    Cкачать фильм Сюрприз бесплатно
    Сюрприз скачать торрент в хорошем качестве
    Сюрприз смотреть онлайн бесплатно в хорошем качестве


    Вы не можете начинать темы
    Вы не можете отвечать на сообщения
    Вы не можете редактировать свои сообщения
    Вы не можете удалять свои сообщения
    Вы не можете голосовать в опросах
    Вы не можете прикреплять файлы к сообщениям
    Вы можете скачивать файлы