Ссылка на приватное зеркало нашего сайта всего за 1$. Внимание количество ограничено!!!

2 сезон

iTunes

1 сезон

1

2 сезон

2 сезон

iTunes

1 сезон

RePack

30

Ultimate

ВАЖНО

ИГРА 18+

pack

RePack

MK11
pack

Забери бонус

RePack

jed

!!Акция!!

Alien_Rage

RePack

fifa19

RePack

Assassins Creed: Odyssey

RePack

NEED FOR SPEED™ PAYBACK

4 сезон

9 сезон

Бесстыжие 9 сезон

Все сериалы

все сериалы на PB.wtf

RePack

FAR CRY 5
  

Эпоха Диккенса / Из-под пера Диккенса / Мир Диккенса / Диккенсовщина / Dickensian / Сезон: 1 / Серии 1-20 из 20 (Гарри Брэдбир / Harry Bradbeer) [2015, Великобритания, драма, WEB-DLRip-AVC] MVO [BaibaKo] pb.wtf

Эпоха Диккенса через торрент pb.wtf

Размер: 12.25 GB | Добавлен: 4 года 9 мес. назад | Торрент скачан:23 раза
Скачать  

06-01-2016 02:41 Эпоха Диккенса Скачать торрент  

Эпоха Диккенса / Из-под пера Диккенса / Мир Диккенса / Диккенсовщина / Dickensian


  • Год выпуска: 2015
  • Страна: Великобритания
  • Жанр: драма
  • Продолжительность: 00:29:16
  • Перевод: Профессиональный многоголосый закадровый [BaibaKo]
  • Режиссер: Гарри Брэдбир / Harry Bradbeer, Марк Брозел / Mark Brozel, Филиппа Лангдэйл / Philippa Langdale
  • В ролях:

    Нед Деннехи (Ebenezer Scrooge), Александра Моэн (Frances Barbary), Бенжамин Кэмпбелл (Boy), Бен Старр (Captain James Hawdon), Таппенс Мидлтон (Amelia Havisham), Джо Куинн (Arthur Havisham), Софи Рандл (Honoria Barbary), Роберт Уилфорт (Bob Cratchit), Том Уэстон-Джонс (Meriwether Compeyson), Энтон Лессер (Fagin), Эдриан Роулинз (Edward Barbary), Марк Стэнли (Bill Sikes)


  • Сериал, действия которого происходят в XIX столетии в Лондоне, собирает в себе множество героев из произведений Чарльза Диккенса. Тесно переплетая судьбы различных героев в условиях одного города, он показывает свою интерпретацию развития событий.
    Сюжет сериала разделён на несколько переплетающихся между собой историй. Первая рассказывает о семье Хэвишем. Молодая девушка Амелия после смерти отца наследует весь его бизнес, что вызывает бурю негодования у её брата Артура, который рассчитывал получить свою долю. Он направляет к сестре своего сообщника Меривезера, чтобы тот мирным путём попытался разрешить возникший конфликт. Но после того, как Амелия выставляет его за дверь, Артур и Меривезер решают разрушить отцовский бизнес. Вторая расскажет об инспекторе Бакете, который расследует убийство одного из героев. В третьей старшая сестра Франсис, ставшая хозяйкой в семье Барбери, узнаёт, что её младшая сестра Гонория тайно встречается с капитаном Джеймсом Хаудоном, который просаживает все свои деньги в азартные игры. Четвертая расскажет о жизни бедного, но благодарного за всё, что у них есть семейства Кретчетов. А в пятой о жизни маленькой Нелл и её дедушке, который увлечен азартными играми.
  • Рейтинг:



  • Качество: WEB-DLRip-AVC
  • Формат: :MPEG-4
  • Видео кодек: AVC
  • Аудио кодек: AC3
  • Видео: 1024x576 (16:9), 2200 kbps, 25 fps, 0,149 bpp
  • Аудио №1: русский / 2.0 / 48 kHz / 384 kbps / 16 bit |[BaibaKo]|
  • Аудио №2: английский / 2.0 / 48 kHz / 384 kbps / 16 bit
  • Релиз от: GEKADOL

    Код:

    Внимание! Раздача ведётся путём добавления новых серий; при каждом добавлении создаётся новый торрент. Чтобы начать докачку новой серии, пользователям необходимо сделать следующее:
    (1) остановить скачивание,
    (2) удалить старый торрент у себя из клиента (старые серии удалять не надо),
    (3) скачать новый торрент и запустить его у себя в клиенте вместо старого, при этом указать клиенту путь в старую папку куда и должно происходить скачивание новых серий.
    Ваш клиент при этом должен произвести хеширование (проверку) старой папки (если не производит сам - помогите ему сделать это), и будет докачивать только те серии которых у вас ещё нет. Старые серии при этом не удаляются, а продолжают раздаваться!
    Eсли вы уже удалили старые серии, то предотвратить повторную закачку старых серий можно, отжав галочку в соответствующих местах при запуске нового торрента. По возможности, желательно не удалять старые серии как можно дольше чтобы релизёр не столько продолжал раздавать старые серии, а смог сконцентрироваться на новых.


    Код:

    General
    Complete name                            : H:\Эпоха Диккенса\Dickensian.s01e05.WEB-DLRip-AVC.Rus.Eng.BaibaKo.tv.mp4
    Format                                   : MPEG-4
    Format profile                           : Base Media
    Codec ID                                 : isom
    File size                                : 606 MiB
    Duration                                 : 29mn 16s
    Overall bit rate                         : 2 893 Kbps
    Writing application                      : XviD4PSP 7.0.196
    iTunMOVI                                 : <?xml version="1.0" encoding="UTF-8"?> / <!DOCTYPE plist PUBLIC "-//Apple//DTD PLIST 1.0//EN" "http://www.apple.com/DTDs/PropertyList-1.0.dtd"> / <plist version="1.0"> / <dict> /     <key>encoding_info</key> /     <array> /         <dict> /             <key>name</key> /             <string>MATROSKA</string> /         </dict> /         <dict> /             <key>name</key> /             <string><![CDATA[WEBM > MP4 / H264 > X264 CBR 2200kbps HQ / AC3 > AC3 CBR 384kbps / AC3 > AC3 CBR 384kbps]]></string> /         </dict> /     </array> / </dict> / </plist>

    Video
    ID                                       : 1
    Format                                   : AVC
    Format/Info                              : Advanced Video Codec
    Format profile                           : High@L3.1
    Format settings, CABAC                   : Yes
    Format settings, ReFrames                : 4 frames
    Codec ID                                 : avc1
    Codec ID/Info                            : Advanced Video Coding
    Duration                                 : 29mn 16s
    Bit rate                                 : 2 200 Kbps
    Width                                    : 1 024 pixels
    Height                                   : 576 pixels
    Display aspect ratio                     : 16:9
    Frame rate mode                          : Constant
    Frame rate                               : 25.000 fps
    Color space                              : YUV
    Chroma subsampling                       : 4:2:0
    Bit depth                                : 8 bits
    Scan type                                : Progressive
    Bits/(Pixel*Frame)                       : 0.149
    Stream size                              : 444 MiB (73%)
    Writing library                          : x264 core 148 r2638M 7599210
    Encoding settings                        : cabac=1 / ref=3 / deblock=1:-1:-1 / analyse=0x3:0x133 / me=hex / subme=7 / psy=1 / psy_rd=1.00:0.20 / mixed_ref=1 / me_range=16 / chroma_me=1 / trellis=1 / 8x8dct=1 / cqm=0 / deadzone=21,11 / fast_pskip=1 / chroma_qp_offset=-3 / threads=5 / lookahead_threads=1 / sliced_threads=0 / nr=0 / decimate=1 / interlaced=0 / bluray_compat=0 / constrained_intra=0 / bframes=3 / b_pyramid=2 / b_adapt=2 / b_bias=0 / direct=3 / weightb=1 / open_gop=0 / weightp=2 / keyint=250 / keyint_min=25 / scenecut=40 / intra_refresh=0 / rc_lookahead=40 / rc=cbr / mbtree=1 / bitrate=2200 / ratetol=1.0 / qcomp=0.60 / qpmin=0 / qpmax=69 / qpstep=4 / vbv_maxrate=2200 / vbv_bufsize=2200 / nal_hrd=none / filler=0 / ip_ratio=1.40 / aq=1:1.00
    Color primaries                          : BT.709-5, BT.1361, IEC 61966-2-4, SMPTE RP177
    Transfer characteristics                 : BT.709-5, BT.1361
    Matrix coefficients                      : BT.709-5, BT.1361, IEC 61966-2-4 709, SMPTE RP177

    Audio #1
    ID                                       : 2
    Format                                   : AC-3
    Format/Info                              : Audio Coding 3
    Mode extension                           : CM (complete main)
    Codec ID                                 : ac-3
    Duration                                 : 29mn 16s
    Bit rate mode                            : Constant
    Bit rate                                 : 384 Kbps
    Channel(s)                               : 2 channels
    Channel positions                        : Front: L R
    Sampling rate                            : 48.0 KHz
    Bit depth                                : 16 bits
    Compression mode                         : Lossy
    Stream size                              : 80.4 MiB (13%)
    Language                                 : Russian

    Audio #2
    ID                                       : 3
    Format                                   : AC-3
    Format/Info                              : Audio Coding 3
    Mode extension                           : CM (complete main)
    Codec ID                                 : ac-3
    Duration                                 : 29mn 16s
    Bit rate mode                            : Constant
    Bit rate                                 : 384 Kbps
    Channel(s)                               : 2 channels
    Channel positions                        : Front: L R
    Sampling rate                            : 48.0 KHz
    Bit depth                                : 16 bits
    Compression mode                         : Lossy
    Stream size                              : 80.4 MiB (13%)
    Language                                 : English




    Скриншоты:
    скриншот   скриншот   скриншот   скриншот   скриншот   скриншот  
    скриншот  

    Раздача ведётся путём добавления новых серий. Добавлена 20 серия (24.02.2016).Просьба перекачать торрент файл.

    pb.wtf



  • Скачать Эпоха Диккенса через торрент http://i2.imageban.ru/out/2016/01/06/28de9f5a41fbfbd6e8128e30cf537409.jpg Скачать фильм Эпоха Диккенса через торрент бесплантно в хорошем качестве qw.png Сериал, действия которого происходят в XIX столетии в Лондоне, собирает в себе множество героев из произведений Чарльза Диккенса. ... 9.4 10 12
    Info! Золотая раздача, скачанное не засчитывается.
    Торрент: Зарегистрирован [2016-02-24 01:40] · скачан: 23 раз
    Статус: √ проверено
    Размер: 12.25 GB
    Как cкачать? Как скачать Эпоха Диккенса через торрент | qTorrent

    28-11-2019 20:33  

    Отключить всю рекламу на сайте

      Дорогой пользователь! Огромная просьба, поблагодарите релизера, оцените раздачу и оставьте свои комментарий, если Вы скачали Эпоха Диккенса через торрент бесплатно! Внесите свою лепту в развитие PiratBit!
      Комментировать посты могут только пользователи прошедшие не сложную регистрацию
      Показать сообщения:    

      Эпоха Диккенса через торрент
      Скачать бесплатно Эпоха Диккенса
      Эпоха Диккенса скачать торрент
      Эпоха Диккенса смотреть онлайн
      Cкачать фильм Эпоха Диккенса бесплатно
      Эпоха Диккенса скачать торрент в хорошем качестве
      Эпоха Диккенса смотреть онлайн бесплатно в хорошем качестве


      Вы не можете начинать темы
      Вы не можете отвечать на сообщения
      Вы не можете редактировать свои сообщения
      Вы не можете удалять свои сообщения
      Вы не можете голосовать в опросах
      Вы не можете прикреплять файлы к сообщениям
      Вы можете скачивать файлы