Ссылка на приватное зеркало нашего сайта всего за 1$. Внимание количество ограничено!!!

2 сезон

iTunes

1 сезон

1

iTunes

iTunes

iTunes

1 сезон

RePack

30

ИГРА 18+

pack

ВАЖНО

!!Акция!!

Alien_RageХит недели

RePack

MK11
pack

Забери бонус

RePack

jed

!!Акция!!

Alien_Rage

RePack

fifa19

RePack

Assassins Creed: Odyssey

RePack

NEED FOR SPEED™ PAYBACK

4 сезон

9 сезон

Бесстыжие 9 сезон

Все сериалы

все сериалы на PB.wtf

RePack

FAR CRY 5
  

Куклы / Dolls (Такеши Китано) [2002, драма, мелодрама, BDRip 720p by msltel] DVO pb.wtf

Куклы через торрент pb.wtf

Размер: 4.96 GB | Добавлен: 4 года 9 мес. назад | Торрент скачан:39 раз
Скачать  

06-01-2016 07:50 Куклы Скачать торрент  

Название: Куклы
Оригинальное название: Dolls
Год выпуска: 2002
Страна: Япония
Жанр: драма, мелодрама
Продолжительность: 01:53:27
Перевод: профессиональный двухголосый

Режиссёр: Такеши Китано

В ролях: Михо Канно, Хидэтоси Нисидзима, Татцуя Михаси, Чиеко Мацубара, Кёко Фукада, Цутому Такесиге, Каяко Кисимото, Кандзи Цуда, Юко Даике, Рен Осуги

Описание: Три истории о бессмертной любви, вдохновлённые представлениями изысканных кукол театра Бунраки. Мацумото и Савако ещё недавно были счастливой парой, но молодой человек решил оставить любимую и жениться по расчёту. Накануне свадьбы Мацумото узнает, что Савако потеряла рассудок... Старик Хиро — босс якудзы. Он богат и окружен почтением, но болен и одинок. Когда-то он был бедным рабочим, и любимая девушка каждый день приносила ему в парк завтраки. Но он бросил её, погнавшись за мечтой стать важным человеком. Теперь, спустя 30 лет, он возвращается в парк, где они когда-то встречались... Харуна Ямагучи целые дни просиживает на пустынном пляже, глядя в море. Её прекрасное лицо почти скрыто повязкой. Совсем недавно, до несчастного случая, Харуна была звездой телевизионных шоу. Её обожали миллионы. Нукуи, возможно, самый преданный из её поклонников. Сегодня он собирается это доказать...



Качество: BDRip 720p Сравнение с исходником
Формат: MKV
Видео: MPEG-4 AVC, 5422 Кбит/с, 1280x692, 24 кадр/с
Аудио 1: русский, AC3, 384 kbps, 6 ch, 48 kHz [профессиональный двухголосый]
Аудио 2: японский, AC3, 448 kbps, 6 ch, 48 kHz [оригинал]
Субтитры: русские
Общее
Уникальный идентификатор : 208526340480268038717737389259313663879 (0x9CE0B65B6B4553D186007DCB49684F87)
Полное имя : D:VideoКуклы.2002.BDRip.720p.mkv
Формат : Matroska
Версия формата : Version 4 / Version 2
Размер файла : 4,96 Гбайт
Продолжительность : 1 ч. 53 м.
Общий поток : 6257 Кбит/сек
Дата кодирования : UTC 2016-01-06 03:59:56
Программа кодирования : mkvmerge v8.2.0 ('World of Adventure') 64bit
Библиотека кодирования : libebml v1.3.1 + libmatroska v1.4.2

Видео
Идентификатор : 1
Формат : AVC
Формат/Информация : Advanced Video Codec
Профиль формата : High@L4.1
Параметр CABAC формата : Да
Параметр ReFrames формата : 9 кадров
Идентификатор кодека : V_MPEG4/ISO/AVC
Продолжительность : 1 ч. 53 м.
Битрейт : 5422 Кбит/сек
Ширина : 1280 пикселей
Высота : 692 пикселя
Соотношение сторон : 1,85:1
Режим частоты кадров : Постоянный
Частота кадров : 24,000 кадра/сек
Цветовое пространство : YUV
Субдискретизация насыщенности : 4:2:0
Битовая глубина : 8 бит
Тип развёртки : Прогрессивная
Бит/(Пиксели*Кадры) : 0.255
Размер потока : 4,30 Гбайт (87%)
Библиотека кодирования : x264 core 146 r2538 121396c
Настройки программы : cabac=1 / ref=9 / deblock=1:-3:-3 / analyse=0x3:0x113 / me=umh / subme=10 / psy=1 / psy_rd=1.00:0.15 / mixed_ref=1 / me_range=32 / chroma_me=1 / trellis=2 / 8x8dct=1 / cqm=0 / deadzone=21,11 / fast_pskip=1 / chroma_qp_offset=-3 / threads=6 / lookahead_threads=1 / sliced_threads=0 / nr=0 / decimate=1 / interlaced=0 / bluray_compat=0 / constrained_intra=0 / bframes=14 / b_pyramid=2 / b_adapt=2 / b_bias=0 / direct=1 / weightb=1 / open_gop=0 / weightp=2 / keyint=230 / keyint_min=23 / scenecut=40 / intra_refresh=0 / rc_lookahead=40 / rc=crf / mbtree=0 / crf=18.6 / qcomp=0.60 / qpmin=0 / qpmax=69 / qpstep=4 / vbv_maxrate=40000 / vbv_bufsize=50000 / crf_max=0.0 / nal_hrd=none / filler=0 / ip_ratio=1.40 / pb_ratio=1.30 / aq=1:1.00
Язык : Japanese
Default : Да
Forced : Нет

Аудио #1
Идентификатор : 2
Формат : AC-3
Формат/Информация : Audio Coding 3
Расширение режима : CM (complete main)
Параметр Endianness формата : Big
Идентификатор кодека : A_AC3
Продолжительность : 1 ч. 53 м.
Вид битрейта : Постоянный
Битрейт : 384 Кбит/сек
Каналы : 6 каналов
Расположение каналов : Front: L C R, Side: L R, LFE
Частота : 48,0 КГц
Частота кадров : 31,250 кадров/сек (1536 spf)
Метод сжатия : С потерями
Размер потока : 312 Мбайт (6%)
Заголовок : DVO
Язык : Russian
Default : Да
Forced : Нет

Аудио #2
Идентификатор : 3
Формат : AC-3
Формат/Информация : Audio Coding 3
Расширение режима : CM (complete main)
Параметр Endianness формата : Big
Идентификатор кодека : A_AC3
Продолжительность : 1 ч. 53 м.
Вид битрейта : Постоянный
Битрейт : 448 Кбит/сек
Каналы : 6 каналов
Расположение каналов : Front: L C R, Side: L R, LFE
Частота : 48,0 КГц
Частота кадров : 31,250 кадров/сек (1536 spf)
Метод сжатия : С потерями
Размер потока : 364 Мбайт (7%)
Заголовок : Original
Язык : Japanese
Default : Нет
Forced : Нет

Текст
Идентификатор : 4
Формат : UTF-8
Идентификатор кодека : S_TEXT/UTF8
Идентификатор кодека/Информация : UTF-8 Plain Text
Продолжительность : 1 ч. 46 м.
Битрейт : 23 бит/сек
Count of elements : 435
Размер потока : 18,1 Кбайт (0%)
Заголовок : русский
Язык : Russian
Default : Нет
Forced : Нет
pb.wtf



Скачать Куклы через торрент http://s020.radikal.ru/i719/1601/0b/8a8fbfb5c630.png Скачать фильм Куклы через торрент бесплантно в хорошем качестве Описание: Три истории о бессмертной любви, вдохновлённые представлениями изысканных кукол театра Бунраки. Мацумото и Савако ещё недавно ... 10 10 1
Info! Золотая раздача, скачанное не засчитывается.
Торрент: Зарегистрирован [2016-01-06 07:50] · скачан: 39 раз
Статус: √ проверено
Размер: 4.96 GB
Как cкачать? Как скачать Куклы через торрент | qTorrent

% Раздел Тема Автор DL S | L
Зарубежные Мультфильмы (BDRip 1080p, 720p, Blu-ray, BD-Remux) [ 9.63 GB ] UglyDolls. Куклы с характером / UglyDolls [2018 мультфильм мюзикл BDRip 1080p] DUB bober100 Скачать
2 | 0
Иностранные мультфильмы [ 1.42 GB ] UglyDolls. Куклы с характером / UglyDolls [2018 мультфильм мюзикл BDRip] bober100 Скачать
2 | 0
Фильмы [HD 720p, 1080p] (Хороший звук DUB, MVO) [ 13.95 GB ] Куклы / Dolls [2002 BDRip 1080p by msltel] DVO msltel Скачать
1 | 0
Азиатские фильмы [ 2.9 GB ] Куклы / Dolls [2002 BDRip AVC by msltel] DVO msltel Скачать
1 | 0

28-11-2019 20:33  

Отключить всю рекламу на сайте

    Дорогой пользователь! Огромная просьба, поблагодарите релизера, оцените раздачу и оставьте свои комментарий, если Вы скачали Куклы через торрент бесплатно! Внесите свою лепту в развитие PiratBit!
    Комментировать посты могут только пользователи прошедшие не сложную регистрацию
    Показать сообщения:    

    Куклы через торрент
    Скачать бесплатно Куклы
    Куклы скачать торрент
    Куклы смотреть онлайн
    Cкачать фильм Куклы бесплатно
    Куклы скачать торрент в хорошем качестве
    Куклы смотреть онлайн бесплатно в хорошем качестве


    Вы не можете начинать темы
    Вы не можете отвечать на сообщения
    Вы не можете редактировать свои сообщения
    Вы не можете удалять свои сообщения
    Вы не можете голосовать в опросах
    Вы не можете прикреплять файлы к сообщениям
    Вы можете скачивать файлы