Присоединяйтесь к нам в Telegram!, здесь всегда актуальный адрес сайта, оперативная поддержка и многое другое!!

>

5.9

iTunes

7.4

iTunes

9.4

1 сезон

1

7.4

2 сезон

7.2

iTunes

7.3

1 сезон

13

6.1

iTunes

8.3

GOG

30

ULTIMATE

pack

9.9

Лицензия

ВАЖНО

ИГРА 18+

pack

7.3

RePack

MK11

7.7

RePack

jed

7.8

RePack

fifa19

8.5

RePack

RDR2

RePack

NEED FOR SPEED™ PAYBACK

5 сезон

9 сезон

Бесстыжие 9 сезон

Все сериалы

все сериалы на PB.wtf

RePack

FAR CRY 5

Anonymous, доброе утро, мы катастрофически не успеваем собрать деньги на оплату серверов, помогите нам пожалуйста 5,10,15р., для нас важна любая помощь . В качестве благодарности мы отключим Вам всю рекламу на сайте (укажите свой ник в строку Ваше имя)!

×
  
Magnet ссылка

The Pretty Reckless - Heaven Knows [2014 г.] (Rock) [WEB-DLRip, 1080p] pb.wtf

The Pretty Reckless - Heaven Knows через торрент pb.wtf

Размер: 54 MB | Добавлен: 5 лет 10 мес. назад | Торрент скачан:36 раз
Смотреть онлайн The Pretty Reckless - Heaven Knows | Скачать    Ребята, помогите собрать деньги на оплату серверов!!!

06-01-2016 08:31 The Pretty Reckless - Heaven Knows Скачать торрент  


The Pretty Reckless - Heaven Knows

Год выпуска: 2014 г.
Страна: USA
Жанр: Rock
Продолжительность: 00:03:45
Качество видео: WEB-DLRip
Контейнер: MP4
Стандарт разрешения: 1080p
Видео кодек: AVC
Аудио кодек: AAC
Видео: 1920x1080, 1873 Кбит/сек, 23,976 кадра/сек, 0.038 bit/pic
Аудио: 126 Кбит/сек, 2 канала, 44,1 КГц

Описание:
The Pretty Reckless — рок-группа из Нью-Йорка, возглавляемая Тейлор Момсен. Изначально названием группы должно было стать The Reckless, но его сменили на The Pretty Reckless из-за проблем с авторским правом на название.
01. Heaven Knows

Код:

Общее
Полное имя                               : D:\Torrent files\The Pretty Reckless - Heaven Knows 2014.mp4
Формат                                   : MPEG-4
Профиль формата                          : Base Media
Идентификатор кодека                     : isom
Размер файла                             : 53,7 Мбайт
Продолжительность                        : 3 м. 45 с.
Общий поток                              : 2004 Кбит/сек
Программа кодирования                    : Lavf55.12.100

Видео
Идентификатор                            : 1
Формат                                   : AVC
Формат/Информация                        : Advanced Video Codec
Профиль формата                          : High@L4
Параметр CABAC формата                   : Да
Параметр ReFrames формата                : 3 кадра
Идентификатор кодека                     : avc1
Идентификатор кодека/Информация          : Advanced Video Coding
Продолжительность                        : 3 м. 44 с.
Битрейт                                  : 1873 Кбит/сек
Ширина                                   : 1920 пикселей
Высота                                   : 1080 пикселей
Соотношение сторон                       : 16:9
Режим частоты кадров                     : Постоянный
Частота кадров                           : 23,976 кадра/сек
Цветовое пространство                    : YUV
Субдискретизация насыщенности            : 4:2:0
Битовая глубина                          : 8 бит
Тип развёртки                            : Прогрессивная
Бит/(Пиксели*Кадры)                      : 0.038
Размер потока                            : 50,2 Мбайт (93%)

Аудио
Идентификатор                            : 2
Формат                                   : AAC
Формат/Информация                        : Advanced Audio Codec
Профиль формата                          : LC
Идентификатор кодека                     : 40
Продолжительность                        : 3 м. 45 с.
Вид битрейта                             : Постоянный
Битрейт                                  : 126 Кбит/сек
Каналы                                   : 2 канала
Расположение каналов                     : Front: L R
Частота                                  : 44,1 КГц
Метод сжатия                             : С потерями
Размер потока                            : 3,37 Мбайт (6%)


скриншот  скриншот  скриншот  скриншот  
скриншот  скриншот  скриншот  скриншот  
pb.wtf



Скачать The Pretty Reckless - Heaven Knows через торрент http://i75.fastpic.ru/big/2016/0106/1b/e331270d015e93a35bf37be34f2e541b.png Скачать, смотреть онлайн The Pretty Reckless - Heaven Knows [2014 г.] бесплантно в хорошем качестве Описание: The Pretty Reckless — рок-группа из Нью-Йорка, возглавляемая Тейлор Момсен. Изначально названием группы должно было стать The ... 10 10 2
Торрент: Зарегистрирован [2016-01-06 08:31] · скачан: 36 раз
Статус: √ проверено
Размер: 54 MB
Как cкачать? Как скачать The Pretty Reckless - Heaven Knows через торрент | UTorrent

28-11-2019 20:33  

Отключить всю рекламу на сайте

    Дорогой пользователь! Огромная просьба, поблагодарите релизера, оцените раздачу и оставьте свои комментарий, если Вы скачали The Pretty Reckless - Heaven Knows через торрент бесплатно!
    Комментировать посты могут только пользователи прошедшие не сложную регистрацию
    Показать сообщения:    

    The Pretty Reckless - Heaven Knows через торрент
    Скачать бесплатно The Pretty Reckless - Heaven Knows
    The Pretty Reckless - Heaven Knows скачать торрент
    The Pretty Reckless - Heaven Knows смотреть онлайн
    Cкачать фильм The Pretty Reckless - Heaven Knows бесплатно
    The Pretty Reckless - Heaven Knows скачать торрент в хорошем качестве
    The Pretty Reckless - Heaven Knows смотреть онлайн бесплатно в хорошем качестве


    Вы не можете начинать темы
    Вы не можете отвечать на сообщения
    Вы не можете редактировать свои сообщения
    Вы не можете удалять свои сообщения
    Вы не можете голосовать в опросах
    Вы не можете прикреплять файлы к сообщениям
    Вы можете скачивать файлы